7aum Arivu (2011) [Tamil-Hindi Proper True 1080p HD AVC x264 – Untouched -2.2Gb/4.8Gb

7 Aum Arivu (Original Motion Picture Soundtrack) by Harris Jayaraj on Amazon Music - Amazon.com

Improve your Audio Library with MediaInfo - FileHippo News

Complete name : 7aum Arivu (2011) [Tamil-Hindi Proper True 1080p HD AVC x264 – Untouched -2.2Gb/4.8Gb
Format : Matroska
Format version : Version 4
File size : 2.44 GiB
Duration : 2 h 37 min
Overall bit rate mode : Variable
Overall bit rate : 2 223 kb/s
Movie name : 7aum Arivu (2011) [Tamil-Hindi Proper True 1080p HD AVC x264 – Untouched -2.2Gb/4.8Gb
Encoded date : UTC 2022-05-29 07:51:24
Writing application : mkvmerge v67.0.0 (‘Under Stars’) 64-bit
Writing library : libebml v1.4.2 + libmatroska v1.6.4 / Lavf59.17.102

Video
ID : 1
Format : AVC
Format/Info : Advanced Video Codec
Format profile : [email protected]
Format settings : CABAC / 4 Ref Frames
Format settings, CABAC : Yes
Format settings, Reference frames : 4 frames
Codec ID : V_MPEG4/ISO/AVC
Duration : 2 h 37 min
Bit rate : 2 000 kb/s
Width : 1 920 pixels
Height : 1 080 pixels
Display aspect ratio : 2.35:1
Frame rate mode : Constant
Frame rate : 25.000 FPS
Color space : YUV
Chroma subsampling : 4:2:0
Bit depth : 8 bits
Scan type : Progressive
Bits/(Pixel*Frame) : 0.039
Stream size : 2.18 GiB (89%)
Writing library : x264 core 164 r3086 5585eaf
Encoding settings : cabac=1 / ref=3 / deblock=1:0:0 / analyse=0x3:0x113 / me=hex / subme=7 / psy=1 / psy_rd=1.00:0.00 / mixed_ref=1 / me_range=16 / chroma_me=1 / trellis=1 / 8x8dct=1 / cqm=0 / deadzone=21,11 / fast_pskip=1 / chroma_qp_offset=-2 / threads=6 / lookahead_threads=1 / sliced_threads=0 / nr=0 / decimate=1 / interlaced=0 / bluray_compat=0 / constrained_intra=0 / bframes=3 / b_pyramid=2 / b_adapt=1 / b_bias=0 / direct=1 / weightb=1 / open_gop=0 / weightp=2 / keyint=250 / keyint_min=25 / scenecut=40 / intra_refresh=0 / rc_lookahead=40 / rc=abr / mbtree=1 / bitrate=2000 / ratetol=1.0 / qcomp=0.60 / qpmin=0 / qpmax=69 / qpstep=4 / ip_ratio=1.40 / aq=1:1.00
Default : Yes
Forced : No
Color range : Limited

Audio #1
ID : 2
Format : Vorbis
Format settings, Floor : 1
Codec ID : A_VORBIS
Duration : 2 h 37 min
Bit rate mode : Variable
Bit rate : 112 kb/s
Channel(s) : 2 channels
Sampling rate : 48.0 kHz
Frame rate : 68.556 FPS (700 SPF)
Compression mode : Lossy
Delay relative to video : -3 ms
Stream size : 125 MiB (5%)
Writing library : libVorbis (Reducing Environment) (20200704 (Reducing Environment))
Language : English
Default : Yes
Forced : No

Audio #2
ID : 3
Format : AAC LC
Format/Info : Advanced Audio Codec Low Complexity
Codec ID : A_AAC-2
Duration : 2 h 37 min
Bit rate : 128 kb/s
Channel(s) : 2 channels
Channel layout : L R
Sampling rate : 22.05 kHz
Frame rate : 21.533 FPS (1024 SPF)
Compression mode : Lossy
Delay relative to video : 34 ms
Stream size : 144 MiB (6%)
Title : Stereo
Language : Hindi
Default : Yes
Forced : No

GitHub - MindorksOpenSource/screenshot: This library helps to take screenshot dynamically

Cartoon Football png download - 957*600 - Free Transparent Logo png Download. - CleanPNG / KissPNG

1080p Encoded 2.2Gb Link
https://linksly.co/Xlr5C

1080p Untouched 4.8GB
https://linksly.co/epzyM

Article By :
I am uploader thats it
5 1 vote
Article Rating
Subscribe
Notify of
guest
3 Comments
Oldest
Newest Most Voted
Inline Feedbacks
View all comments
Rehan
Rehan
4 months ago

Bollywood new movie update sir please

AmiBIPLOB
AmiBIPLOB
4 months ago

woooowww love you bro

Vishal
Vishal
4 months ago

Jihne Mera Dil Luteya (2011) (Punjabi) Untouched DVD9 NTSC TeamTNT – BollyT.com this movie upload 6GB ki hai torrent par hai upload now plz