Cobra.2022.Tamil.1080p.10bit.DS4K.TK.WEBRip.DD+5.1.Atmos.ESub.HEVC-The.PunisheR | 5.84 GB |

Cobra.2022.Tamil.1080p.10bit.DS4K.TK.WEBRip.DD+5.1.Atmos.ESub.HEVC-The.PunisheR | 5.84 GB |

General
Unique ID : 152769666165760244486889520216825183824 (0x72EE5E1244F31B12766B964098BCBE50)
Complete name : Cobra.2022.Tamil.1080p.10bit.DS4K.TK.WEBRip.DD+5.1.Atmos.ESub.HEVC-The.PunisheR.mkv
Format : Matroska
Format version : Version 4 / Version 2
File size : 5.84 GiB
Duration : 3 h 1 min
Overall bit rate : 4 613 kb/s
Movie name : The.PunisheR
Encoded date : UTC 2022-10-01 15:01:15
Writing application : mkvmerge v70.0.0 ('Caught A Lite Sneeze') 64-bit
Writing library : libebml v1.4.2 + libmatroska v1.6.4
Attachments : Encoded-By-The-PunisheR.jpg

Video
ID : 1
Format : HEVC
Format/Info : High Efficiency Video Coding
Format profile : Main [email protected]@High
Codec ID : V_MPEGH/ISO/HEVC
Duration : 3 h 1 min
Bit rate : 4 163 kb/s
Width : 1 920 pixels
Height : 806 pixels
Display aspect ratio : 2.40:1
Frame rate mode : Constant
Frame rate : 24.000 FPS
Color space : YUV
Chroma subsampling : 4:2:0 (Type 0)
Bit depth : 10 bits
Bits/(Pixel*Frame) : 0.112
Stream size : 5.27 GiB (90%)
Title : 1080p / 10bit / DS4K / TK / WEBRip / Q15 / HPL / HEVC ~ The.PunisheR
Default : Yes
Forced : No
Color range : Limited
Color primaries : BT.709
Transfer characteristics : BT.709
Matrix coefficients : BT.709

Audio
ID : 2
Format : E-AC-3
Format/Info : Enhanced Audio Coding 3
Format profile : E-AC-3+Atmos / E-AC-3
Codec ID : A_EAC3
Duration : 3 h 1 min
Bit rate mode : Constant
Bit rate : 448 kb/s
Channel(s) : 15 objects / 6 channels
Channel positions : 15 objects / Front: L C R, Side: L R, LFE
Sampling rate : 48.0 kHz
Frame rate : 187.500 FPS (256 SPF)
Compression mode : Lossy
Stream size : 580 MiB (10%)
Title : DD+5.1 / Atmos / 448kbps / 48kHz ~ The.PunisheR
Language : Tamil
Service kind : Complete Main
Default : Yes
Forced : Yes

Text
ID : 3
Format : UTF-8
Codec ID : S_TEXT/UTF8
Codec ID/Info : UTF-8 Plain Text
Duration : 2 h 58 min
Bit rate : 68 b/s
Count of elements : 2549
Stream size : 90.2 KiB (0%)
Title : English - SRT
Language : English
Default : Yes
Forced : No

Google Drive Link : https://new.gdtot.cfd/file/6265903247

Other Site Encodes Release  : https://1337x.to/user/Sava/

Article By :
Encoder
0 0 votes
Article Rating
Subscribe
Notify of
guest
0 Comments
Inline Feedbacks
View all comments