Aiyyaa.2012.1080p.NF.WEB-DL.DDP5.1.H.264 8GB/1.31GB

Aiyyaa Songs, Download Aiyyaa Movie Songs For Free Online At Saavn.com

Qnap - [ MediaInfo ] [ HD Station ] Get information on your media files | Forum des NAS : Synology, Qnap, Asustor...

Complete name : Aiyyaa 2012 1080p NF WEB-DL DDP5 1 H 264-Telly\Aiyyaa.2012.1080p.NF.WEB-DL.DDP5.1.H.264.mkv
Format : Matroska
Format version : Version 4
File size : 8.60 GiB
Duration : 2 h 31 min
Overall bit rate mode : Variable
Overall bit rate : 8 137 kb/s
Writing application : mkvmerge v41.0.0 (‘Smarra’) 64-bit
Writing library : libebml v1.3.9 + libmatroska v1.5.2 / Lavf58.1.0

Video
ID : 1
Format : AVC
Format/Info : Advanced Video Codec
Format profile : [email protected]
Format settings : CABAC / 3 Ref Frames
Format settings, CABAC : Yes
Format settings, Reference frames : 3 frames
Format settings, GOP : M=1, N=48
Codec ID : V_MPEG4/ISO/AVC
Duration : 2 h 31 min
Bit rate mode : Variable
Bit rate : 7 500 kb/s
Maximum bit rate : 11.2 Mb/s
Width : 1 920 pixels
Height : 1 080 pixels
Display aspect ratio : 16:9
Frame rate mode : Constant
Frame rate : 24.000 FPS
Color space : YUV
Chroma subsampling : 4:2:0
Bit depth : 8 bits
Scan type : Progressive
Bits/(Pixel*Frame) : 0.151
Stream size : 7.75 GiB (90%)
Writing library : x264 core 118
Default : Yes
Forced : Audio
ID : 2
Format : E-AC-3
Format/Info : Enhanced AC-3
Commercial name : Dolby Digital Plus
Codec ID : A_EAC3
Duration : 2 h 31 min
Bit rate mode : Constant
Bit rate : 640 kb/s
Channel(s) : 6 channels
Channel layout : L R C LFE Ls Rs
Sampling rate : 48.0 kHz
Frame rate : 31.250 FPS (1536 SPF)
Compression mode : Lossy
Stream size : 693 MiB (8%)
Service kind : Complete Main
Default : Yes
Forced : No

HD Website Screenshot API | ScreenshotAPI.net

Aiyyaa-2012-1080p-NF-WEB-DL-DDP5-1-H-264-mkv-snapshot-00-04-22-2022-08-08-10-47-06Aiyyaa-2012-1080p-NF-WEB-DL-DDP5-1-H-264-mkv-snapshot-00-09-04-2022-08-08-10-47-11Aiyyaa-2012-1080p-NF-WEB-DL-DDP5-1-H-264-mkv-snapshot-00-32-10-2022-08-08-10-47-16Aiyyaa-2012-1080p-NF-WEB-DL-DDP5-1-H-264-mkv-snapshot-00-44-24-2022-08-08-10-47-20Aiyyaa-2012-1080p-NF-WEB-DL-DDP5-1-H-264-mkv-snapshot-00-56-02-2022-08-08-10-47-24Aiyyaa-2012-1080p-NF-WEB-DL-DDP5-1-H-264-mkv-snapshot-01-16-46-2022-08-08-10-47-28Aiyyaa-2012-1080p-NF-WEB-DL-DDP5-1-H-264-mkv-snapshot-02-22-48-2022-08-08-10-47-45

1080p NF RIP

720p NF RIP

Article By :
I am uploader thats it
0 0 votes
Article Rating
Subscribe
Notify of
guest
0 Comments
Inline Feedbacks
View all comments