Ambulance (2022) 1080p 10bit.DS4K.MA.WEBRip.[Org.DDP5.1-Hindi+DDP5.1-English].Atmos.ESub.HEVC-The.PunisheR.mkv [4.7 GB]

Ambulance (2022) 1080p 10bit.DS4K.MA.WEBRip.[Org.DDP5.1-Hindi+DDP5.1-English].Atmos.ESub.HEVC-The.PunisheR.mkv [4.7 GB]

Encoded Using CRF 17 From 4K SDR MA WEBDL

General
Unique ID : 234790070301993605829041696494038689948 (0xB0A2EC36534B809A1FFA84058382289C)
Complete name : Ambulance.2022.1080p.10bit.DS4K.MA.WEBRip.[Org.DDP5.1-Hindi+DDP5.1-English].Atmos.ESub.HEVC-The.PunisheR.mkv
Format : Matroska
Format version : Version 4 / Version 2
File size : 4.68 GiB
Duration : 2 h 16 min
Overall bit rate : 4 911 kb/s
Movie name : The.PunisheR
Encoded date : UTC 2022-06-07 08:16:07
Writing application : mkvmerge v68.0.0 (‘The Curtain’) 64-bit
Writing library : libebml v1.4.2 + libmatroska v1.6.4
Attachments : Encoded-By-The-PunisheR.jpg

Video
ID : 1
Format : HEVC
Format/Info : High Efficiency Video Coding
Format profile : Main [email protected]@High
Codec ID : V_MPEGH/ISO/HEVC
Duration : 2 h 16 min
Bit rate : 3 501 kb/s
Width : 1 920 pixels
Height : 804 pixels
Display aspect ratio : 2.40:1
Frame rate mode : Constant
Frame rate : 23.976 (24000/1001) FPS
Color space : YUV
Chroma subsampling : 4:2:0 (Type 2)
Bit depth : 10 bits
Bits/(Pixel*Frame) : 0.095
Stream size : 3.33 GiB (71%)
Title : 1080p / 10bit / DS4K / MA / WEBRip / Q17 / HPL / HEVC ~ The.PunisheR
Default : Yes
Forced : No
Color range : Limited
Color primaries : BT.709
Transfer characteristics : BT.709
Matrix coefficients : BT.709

Audio #1
ID : 2
Format : E-AC-3
Format/Info : Enhanced Audio Coding 3
Format settings, Endianness : Big
Codec ID : A_EAC3
Duration : 2 h 16 min
Bit rate mode : Constant
Bit rate : 640 kb/s
Channel(s) : 6 channels
Channel positions : Front: L C R, Side: L R, LFE
Sampling rate : 48.0 kHz
Frame rate : 187.500 FPS (256 SPF)
Compression mode : Lossy
Delay relative to video : 1 s 60 ms
Stream size : 624 MiB (13%)
Title : Org. Amz / DD+5.1 / 640kbps / 48kHz ~ The.PunisheR
Language : Hindi
Service kind : Complete Main
Default : Yes
Forced : Yes

Audio #2
ID : 3
Format : E-AC-3
Format/Info : Enhanced Audio Coding 3
Format profile : E-AC-3+Atmos / E-AC-3
Format settings, Endianness : Big
Codec ID : A_EAC3
Duration : 2 h 16 min
Bit rate mode : Constant
Bit rate : 768 kb/s
Channel(s) : 15 objects / 6 channels
Channel positions : 15 objects / Front: L C R, Side: L R, LFE
Sampling rate : 48.0 kHz
Frame rate : 187.500 FPS (256 SPF)
Compression mode : Lossy
Stream size : 749 MiB (16%)
Title : DD+5.1 / Atmos / 768kbps / 48kHz ~ The.PunisheR
Language : English
Service kind : Complete Main
Default : No
Forced : No

Google Drive Link 1https://new.gdtot.xyz/file/5022196970

Google Drive Link 2 : Soon

Torrent Link (Direct Download) : https://www14.zippyshare.com/v/TsILVIwE/file.html

Other Site Encodes Release  : https://1337x.to/user/Sava/

Article By :
Uploder / Encoder
5 1 vote
Article Rating
Subscribe
Notify of
guest
3 Comments
Oldest
Newest Most Voted
Inline Feedbacks
View all comments
Frank Castle
Editor
3 months ago

Ho Bhidu xD

Bhavesh Parekh
Bhavesh Parekh
3 months ago

Hello
Pls upload hindi movies.