Avengers Infinity War (2018) IMAX 1080p 10bit DS4K DSNP WEBRip [Org.BD5.1-Hindi+DDP5.1-English] ESub HEVC – |The.PunisheR | 6.2 GB |

Avengers Infinity War (2018) IMAX 1080p 10bit DS4K DSNP WEBRip [Org.BD5.1-Hindi+DDP5.1-English] ESub HEVC – |The.PunisheR | 6.2 GB |

Link 1 :  https://new2.gdtot.cfd/file/6604619850

  Link 2 :  https://new2.gdtot.cfd/file/13209239577

ℹ️MediaInfos:
General
Unique ID : 293981549035515031847016175663482946371 (0xDD2AC96E3F35442C03EAEB66C8244343)
Complete name : Avengers.Infinity.War.2018.IMAX.1080p.10bit.DS4K.DSNP.WEBRip.[Org.BD5.1-Hindi+DDP5.1-English].ESub.HEVC-The.PunisheR.mkv
Format : Matroska
Format version : Version 4 / Version 2
File size : 6.15 GiB
Duration : 2 h 29 min
Overall bit rate : 5 897 kb/s
Movie name : The.PunisheR
Encoded date : UTC 2022-11-21 03:09:22
Writing application : mkvmerge v71.1.0 (‘Fortitude’) 64-bit
Writing library : libebml v1.4.4 + libmatroska v1.7.1
Attachments : Encoded-By-The-PunisheR.jpg

Video
ID : 1
Format : HEVC
Format/Info : High Efficiency Video Coding
Format profile : Main [email protected]@High
Codec ID : V_MPEGH/ISO/HEVC
Duration : 2 h 29 min
Bit rate : 4 488 kb/s
Width : 1 920 pixels
Height : 1 012 pixels
Display aspect ratio : 1.897
Frame rate mode : Constant
Frame rate : 23.976 (24000/1001) FPS
Color space : YUV
Chroma subsampling : 4:2:0 (Type 0)
Bit depth : 10 bits
Bits/(Pixel*Frame) : 0.096
Stream size : 4.68 GiB (76%)
Title : 1080p / 10bit / DS4K / DSNP / WEBRip / Q15.5 / HPL / HEVC ~ The.PunisheR
Default : Yes
Forced : Yes
Color range : Limited
Color primaries : BT.709
Transfer characteristics : BT.709
Matrix coefficients : BT.709

Audio #1
ID : 2
Format : AC-3
Format/Info : Audio Coding 3
Codec ID : A_AC3
Duration : 2 h 29 min
Bit rate mode : Constant
Bit rate : 640 kb/s
Channel(s) : 6 channels
Channel positions : Front: L C R, Side: L R, LFE
Sampling rate : 48.0 kHz
Frame rate : 31.250 FPS (1536 SPF)
Bit depth : 16 bits
Compression mode : Lossy
Stream size : 684 MiB (11%)
Title : Org. BD / DD5.1 / 640kbps / 48kHz ~ The.PunisheR
Language : Hindi
Service kind : Complete Main
Default : Yes
Forced : Yes

Audio #2
ID : 3
Format : E-AC-3
Format/Info : Enhanced Audio Coding 3
Format profile : E-AC-3+Atmos / E-AC-3
Codec ID : A_EAC3
Duration : 2 h 29 min
Bit rate mode : Constant
Bit rate : 768 kb/s
Channel(s) : 15 objects / 6 channels
Channel positions : 15 objects / Front: L C R, Side: L R, LFE
Sampling rate : 48.0 kHz
Frame rate : 187.500 FPS (256 SPF)
Compression mode : Lossy
Stream size : 820 MiB (13%)
Title : DD+5.1 / Atmos / 768kbps / 48kHz ~ The.PunisheR
Language : English
Service kind : Complete Main
Default : No
Forced : No

Text #1
ID : 4
Format : UTF-8
Codec ID : S_TEXT/UTF8
Codec ID/Info : UTF-8 Plain Text
Duration : 2 h 28 min
Bit rate : 43 b/s
Count of elements : 1741
Stream size : 47.1 KiB (0%)
Title : English – SRT
Language : English
Default : No
Forced : No

Text #2
ID : 5
Format : UTF-8
Codec ID : S_TEXT/UTF8
Codec ID/Info : UTF-8 Plain Text
Duration : 2 h 28 min
Bit rate : 48 b/s
Count of elements : 2067
Stream size : 52.9 KiB (0%)
Title : English – SRT [SDH]
Language : English
Default : No
Forced : No

Other Site Encodes Release  : https://1337x.to/user/Sava/

Article By :
Uploder / Encoder
0 0 votes
Article Rating
Subscribe
Notify of
guest
0 Comments
Inline Feedbacks
View all comments