Bajirao Mastani 2015 1080p 10bit BluRay DD+7.1 ESub HEVC | The.PunisheR | 5.36GB

Bajirao.Mastani.2015.1080p.10bit.BluRay.DD+7.1.ESub.HEVC | The.PunisheR | 5.36 GB |

MediaInfos:
General
Unique ID : 111409833009576577219112430488877502057 (0x53D0C0DB7ECC136EF92C908CB8A38E69)
Complete name : Bajirao.Mastani.2015.1080p.10bit.BluRay.DD+7.1.ESub.HEVC-The.PunisheR.mkv
Format : Matroska
Format version : Version 4
File size : 5.36 GiB
Duration : 2 h 38 min
Overall bit rate : 4 858 kb/s
Movie name : The.PunisheR
Encoded date : UTC 2021-12-26 04:56:48
Writing application : mkvmerge v63.0.0 (‘Everything’) 64-bit
Writing library : libebml v1.4.2 + libmatroska v1.6.4

Video
ID : 1
Format : HEVC
Format/Info : High Efficiency Video Coding
Format profile : Main [email protected]@Main
Codec ID : V_MPEGH/ISO/HEVC
Duration : 2 h 38 min
Bit rate : 4 076 kb/s
Width : 1 920 pixels
Height : 808 pixels
Display aspect ratio : 2.40:1
Frame rate mode : Constant
Frame rate : 24.000 FPS
Color space : YUV
Chroma subsampling : 4:2:0
Bit depth : 10 bits
Bits/(Pixel*Frame) : 0.109
Stream size : 4.50 GiB (84%)
Title : 1080p / 10bit / BluRay / Q17 / HEVC ~ The.PunisheR
Default : Yes
Forced : Yes
Color range : Limited
Color primaries : BT.709
Transfer characteristics : BT.709
Matrix coefficients : BT.709

Audio
ID : 2
Format : E-AC-3
Format/Info : Enhanced AC-3
Commercial name : Dolby Digital Plus
Format settings : Dolby Surround EX
Codec ID : A_EAC3
Duration : 2 h 38 min
Bit rate mode : Constant
Bit rate : 768 kb/s
Channel(s) : 8 channels
Channel layout : L R C LFE Ls Rs Lb Rb
Sampling rate : 48.0 kHz
Frame rate : 31.250 FPS (1536 SPF)
Compression mode : Lossy
Stream size : 868 MiB (16%)
Title : DD+7.1 / 768kbps / 48kHz (Core: DD+5.1 / 430kbps / 48kHz) ~ The.PunisheR
Language : Hindi
Service kind : Complete Main
Default : Yes
Forced : Yes

Text
ID : 3
Format : PGS
Muxing mode : zlib
Codec ID : S_HDMV/PGS
Codec ID/Info : Picture based subtitle format used on BDs/HD-DVDs
Duration : 2 h 29 min
Bit rate : 22.1 kb/s
Count of elements : 2278
Stream size : 23.7 MiB (0%)
Title : English – BD – PGS
Language : English
Default : No
Forced : No

Menu
00:00:00.000 : :Chapter 1
00:03:14.667 : :Chapter 2
00:07:38.667 : :Chapter 3
00:14:16.000 : :Chapter 4
00:18:37.333 : :Chapter 5
00:24:08.000 : :Chapter 6
00:28:32.000 : :Chapter 7
00:32:10.667 : :Chapter 8
00:37:06.667 : :Chapter 9
00:39:38.667 : :Chapter 10
00:44:08.000 : :Chapter 11
00:50:32.000 : :Chapter 12
01:00:40.000 : :Chapter 13
01:08:56.000 : :Chapter 14
01:11:44.000 : :Chapter 15
01:25:49.333 : :Chapter 16
01:28:10.667 : :Chapter 17
01:32:21.333 : :Chapter 18
01:41:54.667 : :Chapter 19
01:46:34.667 : :Chapter 20
01:49:14.667 : :Chapter 21
01:55:14.667 : :Chapter 22
01:58:40.000 : :Chapter 23
02:08:53.333 : :Chapter 24
02:12:00.000 : :Chapter 25
02:13:46.667 : :Chapter 26
02:21:38.667 : :Chapter 27
02:33:25.333 : :Chapter 28

Google Drive Link  : https://new.gdtot.xyz/file/5758027462

Other Site Encodes Release  : https://1337x.to/user/Sava/

Article By :
Encoder
0 0 votes
Article Rating
Subscribe
Notify of
guest
0 Comments
Inline Feedbacks
View all comments