Brahmastra Part One – Shiva (2022) Hindi 1080p 10bit DS4K DSNP WEBRip DDP5.1 Atmos ESub HEVC – | The.PunisheR | 7.43GB |

Brahmastra Part One – Shiva (2022) Hindi 1080p 10bit DS4K DSNP WEBRip DDP5.1 Atmos ESub HEVC – | The.PunisheR | 7.43GB |

Link 1 : https://new1.gdtot.cfd/file/7978060201

Link 2 : https://new1.gdtot.cfd/file/31912240435

ℹ️

Brahmastra.Part.One-Shiva.2022.Hindi.1080p.10bit.DS4K.DSNP.WEBRip.DDP5.1.Atmos.ESub.HEVC-The.PunisheR

Encoded Using CRF 16 From 4K WEB-DL

MediaInfos:
General
Unique ID : 156171449478833067665742304332187628296 (0x757D86F016BB59FECC5A8D8CDAEAF308)
Complete name : Brahmastra.Part.One-Shiva.2022.Hindi.1080p.10bit.DS4K.DSNP.WEBRip.DDP5.1.Atmos.ESub.HEVC-The.PunisheR.mkv
Format : Matroska
Format version : Version 4
File size : 7.43 GiB
Duration : 2 h 48 min
Overall bit rate : 6 297 kb/s
Movie name : The.PunisheR
Encoded date : UTC 2022-11-04 17:22:32
Writing application : mkvmerge v71.1.0 (‘Fortitude’) 64-bit
Writing library : libebml v1.4.4 + libmatroska v1.7.1
Attachments : Encoded-By-The-PunisheR.jpg

Video
ID : 1
Format : HEVC
Format/Info : High Efficiency Video Coding
Format profile : Main [email protected]@High
Codec ID : V_MPEGH/ISO/HEVC
Duration : 2 h 48 min
Bit rate : 5 527 kb/s
Width : 1 920 pixels
Height : 804 pixels
Display aspect ratio : 2.40:1
Frame rate mode : Constant
Frame rate : 24.000 FPS
Color space : YUV
Chroma subsampling : 4:2:0 (Type 0)
Bit depth : 10 bits
Bits/(Pixel*Frame) : 0.149
Stream size : 6.52 GiB (88%)
Title : 1080p / 10bit / DS4K / DSNP / WEBRip / Q16 / HPL / HEVC ~ The.PunisheR
Default : Yes
Forced : Yes
Color range : Limited
Color primaries : BT.709
Transfer characteristics : BT.709
Matrix coefficients : BT.709

Audio
ID : 2
Format : E-AC-3 JOC
Format/Info : Enhanced AC-3 with Joint Object Coding
Commercial name : Dolby Digital Plus with Dolby Atmos
Codec ID : A_EAC3
Duration : 2 h 48 min
Bit rate mode : Constant
Bit rate : 768 kb/s
Channel(s) : 6 channels
Channel layout : L R C LFE Ls Rs
Sampling rate : 48.0 kHz
Frame rate : 31.250 FPS (1536 SPF)
Compression mode : Lossy
Stream size : 928 MiB (12%)
Title : DD+5.1 / Atmos / 768kbps / 48kHz ~ The.PunisheR
Language : Hindi
Service kind : Complete Main
Default : Yes
Forced : Yes
Complexity index : 16
Number of dynamic objects : 15
Bed channel count : 1 channel
Bed channel configuration : LFE

Text
ID : 3
Format : UTF-8
Codec ID : S_TEXT/UTF8
Codec ID/Info : UTF-8 Plain Text
Duration : 2 h 37 min
Bit rate : 40 b/s
Frame rate : 0.191 FPS
Count of elements : 1803
Stream size : 47.1 KiB (0%)
Title : English – SRT
Language : English
Default : No
Forced : No

Other Site Encodes Release  : https://1337x.to/user/Sava/

Article By :
Uploder / Encoder
0 0 votes
Article Rating
Subscribe
Notify of
guest
0 Comments
Inline Feedbacks
View all comments