Bullet Train (2022) 1080p 10bit DS4K WEBRip [Org.DDP5.1-Hindi+DDP5.1-English] Atmos ESub HEVC – | The.PunisheR | 4.55 GiB |

Bullet Train (2022) 1080p 10bit DS4K WEBRip [Org.DDP5.1-Hindi+DDP5.1-English] Atmos ESub HEVC – | The.PunisheR | 4.55 GiB |

Link 1 : https://new.gdtot.cfd/file/4882699746

Link 2 : https://appdrive.info/file/G5FSdES2VN0h3T1gRhSh

ℹ️

MediaInfos:
General
Unique ID : 23358673785583485068804817864341892932 (0x1192B788C1914C08B7D60457EBACAF44)
Complete name : Bullet.Train.2022.1080p.10bit.DS4K.WEBRip.[Org.DDP5.1-Hindi+DDP5.1-English].Atmos.ESub.HEVC-The.PunisheR.mkv
Format : Matroska
Format version : Version 4 / Version 2
File size : 4.55 GiB
Duration : 2 h 6 min
Overall bit rate : 5 135 kb/s
Movie name : The.PunisheR
Encoded date : UTC 2022-09-28 20:10:40
Writing application : mkvmerge v70.0.0 (‘Caught A Lite Sneeze’) 64-bit
Writing library : libebml v1.4.2 + libmatroska v1.6.4
Attachments : Encoded-By-The-PunisheR.jpg

Video
ID : 1
Format : HEVC
Format/Info : High Efficiency Video Coding
Format profile : Main [email protected]@High
Codec ID : V_MPEGH/ISO/HEVC
Duration : 2 h 6 min
Bit rate : 3 734 kb/s
Width : 1 920 pixels
Height : 792 pixels
Display aspect ratio : 2.40:1
Frame rate mode : Constant
Frame rate : 23.976 (24000/1001) FPS
Color space : YUV
Chroma subsampling : 4:2:0 (Type 0)
Bit depth : 10 bits
Bits/(Pixel*Frame) : 0.102
Stream size : 3.30 GiB (73%)
Title : 1080p / 10bit / DS4K / WEBRip / Q14.5 / HPL / HEVC ~ The.PunisheR
Default : Yes
Forced : No
Color range : Limited
Color primaries : BT.709
Transfer characteristics : BT.709
Matrix coefficients : BT.709

Audio #1
ID : 2
Format : E-AC-3
Format/Info : Enhanced Audio Coding 3
Codec ID : A_EAC3
Duration : 2 h 6 min
Bit rate mode : Constant
Bit rate : 640 kb/s
Channel(s) : 6 channels
Channel positions : Front: L C R, Side: L R, LFE
Sampling rate : 48.0 kHz
Frame rate : 187.500 FPS (256 SPF)
Compression mode : Lossy
Stream size : 580 MiB (12%)
Title : Org. AMZN / DD+5.1 / 640kbps / 48kHz ~ The.PunisheR
Language : Hindi
Service kind : Complete Main
Default : Yes
Forced : No

Audio #2
ID : 3
Format : E-AC-3
Format/Info : Enhanced Audio Coding 3
Format profile : E-AC-3+Atmos / E-AC-3
Codec ID : A_EAC3
Duration : 2 h 6 min
Bit rate mode : Constant
Bit rate : 768 kb/s
Channel(s) : 15 objects / 6 channels
Channel positions : 15 objects / Front: L C R, Side: L R, LFE
Sampling rate : 48.0 kHz
Frame rate : 187.500 FPS (256 SPF)
Compression mode : Lossy
Stream size : 695 MiB (15%)
Title : DD+5.1 / Atmos / 768kbps / 48kHz ~ The.PunisheR
Language : English
Service kind : Complete Main
Default : No
Forced : No

Other Site Encodes Release  : https://1337x.to/user/Sava/

Article By :
Uploder / Encoder
0 0 votes
Article Rating
Subscribe
Notify of
guest
0 Comments
Inline Feedbacks
View all comments