Devon Ke Dev Mahadev Season 1-36 1080p DD 5.1 –318GB

Buy Devon Ke Dev Mahadev Season II online at Flipkart.com

Qnap - [ MediaInfo ] [ HD Station ] Get information on your media files | Forum des NAS : Synology, Qnap, Asustor...

Complete name : Devon Ke Dev Parvati inaugurates the palace _Daredevil_.mp4
Format : MPEG-4
Format profile : Base Media
Codec ID : isom (isom/iso2/avc1/mp41)
File size : 393 MiB
Duration : 21 min 22 s
Overall bit rate : 2 574 kb/s
Writing application : Lavf58.42.100

Video
ID : 1
Format : AVC
Format/Info : Advanced Video Codec
Format profile : [email protected]
Format settings : CABAC / 4 Ref Frames
Format settings, CABAC : Yes
Format settings, Reference frames : 4 frames
Codec ID : avc1
Codec ID/Info : Advanced Video Coding
Duration : 21 min 22 s
Bit rate : 2 504 kb/s
Width : 1 920 pixels
Height : 1 080 pixels
Display aspect ratio : 16:9
Frame rate mode : Constant
Frame rate : 25.000 FPS
Color space : YUV
Chroma subsampling : 4:2:0
Bit depth : 8 bits
Scan type : Progressive
Bits/(Pixel*Frame) : 0.048
Stream size : 383 MiB (97%)
Writing library : x264 core 155 r2917 0a84d98
Codec configuration box : avcC

Audio
ID : 2
Format : AAC LC
Format/Info : Advanced Audio Codec Low Complexity
Codec ID : mp4a-40-2
Duration : 21 min 22 s
Bit rate mode : Constant
Bit rate : 64.2 kb/s
Channel(s) : 2 channels
Channel layout : L R
Sampling rate : 48.0 kHz
Frame rate : 46.875 FPS (1024 SPF)
Compression mode : Lossy
Stream size : 9.81 MiB (2%)
Default : Yes

HD Website Screenshot API | ScreenshotAPI.netDevon-Ke-Dev-Mahadev-S10-EP30-Parvati-inaugurates-the-palace-Daredevil-mp4-snapshot-00-55-2022-08-11Devon-Ke-Dev-Mahadev-S10-EP30-Parvati-inaugurates-the-palace-Daredevil-mp4-snapshot-03-27-2022-08-11Devon-Ke-Dev-Mahadev-S10-EP30-Parvati-inaugurates-the-palace-Daredevil-mp4-snapshot-08-47-2022-08-11Devon-Ke-Dev-Mahadev-S10-EP30-Parvati-inaugurates-the-palace-Daredevil-mp4-snapshot-13-51-2022-08-11Devon-Ke-Dev-Mahadev-S10-EP30-Parvati-inaugurates-the-palace-Daredevil-mp4-snapshot-16-59-2022-08-11Devon-Ke-Dev-Mahadev-S10-EP30-Parvati-inaugurates-the-palace-Daredevil-mp4-snapshot-20-27-2022-08-11
TusFiles Premium Account – The Filehoster at a Glance

Season 1

Season 2

Season 3

Season 4

Season 5

Season 6

Season 7

Season 8

Season 9

Season 10

Season 11

Season 12

Season 13

Season 14

Season 15

Season 16

Season 17

Season 18

Season 19

Season 20

Season 21

Season 22

Season 23

Season 24

Season 25

Season 26

Season 27

Season 28

Season 29

Season 30

Season 31

Season 32

Season 33

Season 34

Season 35

Season 36

Article By :
I am uploader thats it
0 0 votes
Article Rating
Subscribe
Notify of
guest
1 Comment
Oldest
Newest Most Voted
Inline Feedbacks
View all comments
Th3W1tch3r
Th3W1tch3r
1 month ago

Thank You Very Much Bro. 🙂