Doctor Strange In The Multiverse Of Madness (2022) 1080p 10bit DS4K WEBRip [Org.DDP5.1-Hindi+DDP5.1-English] Atmos MSubs HEVC-The.PunisheR | 4.8 GB |

Doctor Strange In The Multiverse Of Madness (2022) 1080p 10bit DS4K WEBRip [Org.DDP5.1-Hindi+DDP5.1-English] Atmos MSubs HEVC-The.PunisheR | 4.8 GB |

MediaInfos:
General
Unique ID : 143540386042177904707122121023535750597 (0x6BFCDF6DE772C870D31169D4D2A09DC5)
Complete name : Doctor.Strange.In.The.Multiverse.Of.Madness.2022.1080p.10bit.DS4K.WEBRip.[Org.DDP5.1-Hindi+DDP5.1-English].Atmos.MSubs.HEVC-The.PunisheR.mkv
Format : Matroska
Format version : Version 4 / Version 2
File size : 4.78 GiB
Duration : 2 h 6 min
Overall bit rate : 5 406 kb/s
Movie name : The.PunisheR
Encoded date : UTC 2022-06-23 13:37:34
Writing application : mkvmerge v68.0.0 (‘The Curtain’) 64-bit
Writing library : libebml v1.4.2 + libmatroska v1.6.4
Attachments : Encoded-By-The-PunisheR.jpg

Video
ID : 1
Format : HEVC
Format/Info : High Efficiency Video Coding
Format profile : Main [email protected]@High
Codec ID : V_MPEGH/ISO/HEVC
Duration : 2 h 6 min
Bit rate : 4 443 kb/s
Width : 1 920 pixels
Height : 804 pixels
Display aspect ratio : 2.40:1
Frame rate mode : Constant
Frame rate : 23.976 (24000/1001) FPS
Color space : YUV
Chroma subsampling : 4:2:0 (Type 0)
Bit depth : 10 bits
Bits/(Pixel*Frame) : 0.120
Stream size : 3.93 GiB (82%)
Title : 1080p / 10bit / DS4K / WEBRip / Q14 / HPL / HEVC ~ The.PunisheR
Default : Yes
Forced : No
Color range : Limited
Color primaries : BT.709
Transfer characteristics : BT.709
Matrix coefficients : BT.709

Audio #1
ID : 2
Format : E-AC-3
Format/Info : Enhanced Audio Coding 3
Format settings, Endianness : Big
Codec ID : A_EAC3
Duration : 2 h 6 min
Bit rate mode : Constant
Bit rate : 192 kb/s
Channel(s) : 6 channels
Channel positions : Front: L C R, Side: L R, LFE
Sampling rate : 48.0 kHz
Frame rate : 187.500 FPS (256 SPF)
Compression mode : Lossy
Stream size : 174 MiB (4%)
Title : Org. DDP5.1 / 192kbps / 48kHz ~ The.PunisheR
Language : Hindi
Service kind : Complete Main
Default : Yes
Forced : Yes

Audio #2
ID : 3
Format : E-AC-3
Format/Info : Enhanced Audio Coding 3
Format profile : E-AC-3+Atmos / E-AC-3
Format settings, Endianness : Big
Codec ID : A_EAC3
Duration : 2 h 6 min
Bit rate mode : Constant
Bit rate : 768 kb/s
Channel(s) : 15 objects / 6 channels
Channel positions : 15 objects / Front: L C R, Side: L R, LFE
Sampling rate : 48.0 kHz
Frame rate : 187.500 FPS (256 SPF)
Compression mode : Lossy
Stream size : 695 MiB (14%)
Title : DD+5.1 / Atmos / 768kbps / 48kHz ~ The.PunisheR
Language : English
Service kind : Complete Main
Default : Yes
Forced : No

Doctor Strange In The Multiverse Of Madness (2022) 1080p 10bit DS4K WEBRip [Org.DDP5.1-Hindi+DDP5.1-English] Atmos MSubs HEVC-The.PunisheR | 4.8 GB |

Google Drive Link 1 : https://new.gdtot.xyz/file/10259511831

Google Drive Link 2 : https://gdflix.pro/file/0tGQwdmift

Sharer Link : https://sharer.pw/file/C12mC1vfKzZu

Other Site Encodes Release  : https://1337x.to/user/Sava/

Article By :
Uploder / Encoder
0 0 votes
Article Rating
Subscribe
Notify of
guest
4 Comments
Oldest
Newest Most Voted
Inline Feedbacks
View all comments
krishna
krishna
2 months ago

pls upload Doctor Strange In The Multiverse Of Madness (2022) IMAX version punisher quality.

krishna
krishna
Reply to  DB9
2 months ago

okh brother

Ajay
2 months ago

Ajay