Fantastic Beasts The Secrets of Dumbledore (2022) 1080p.10bit.DS4K.HMAX.WEBRip.[Org.DDP5.1-Hindi+DDP5.1-English].Atmos.ESub.HEVC-The.PunisheR [4.7 GB]

Fantastic Beasts: The Secrets of Dumbledore (2022) - IMDb

Fantastic Beasts The Secrets of Dumbledore (2022) 1080p.10bit.DS4K.HMAX.WEBRip.[Org.DDP5.1-Hindi+DDP5.1-English].Atmos.ESub.HEVC-The.PunisheR.mkv [4.7 GB]

Encoded Using CRF 13 From 4K-HDR HBO WEBDL

General
Unique ID : 280109015624647910266433972027879780956 (0xD2BB08BA0505DBBADE2F81CF05E2F25C)
Complete name : Fantastic.Beasts.The.Secrets.of.Dumbledore.2022.1080p.10bit.DS4K.HMAX.WEBRip.[Org.DDP5.1-Hindi+DDP5.1-English].Atmos.ESub.HEVC-The.PunisheR.mkv
Format : Matroska
Format version : Version 4 / Version 2
File size : 4.74 GiB
Duration : 2 h 22 min
Overall bit rate : 4 762 kb/s
Movie name : The.PunisheR
Encoded date : UTC 2022-05-31 10:25:45
Writing application : mkvmerge v68.0.0 (‘The Curtain’) 64-bit
Writing library : libebml v1.4.2 + libmatroska v1.6.4 / Lavf58.76.100

Video
ID : 1
Format : HEVC
Format/Info : High Efficiency Video Coding
Format profile : Main [email protected]@High
Codec ID : V_MPEGH/ISO/HEVC
Duration : 2 h 22 min
Bit rate : 3 352 kb/s
Width : 1 920 pixels
Height : 802 pixels
Display aspect ratio : 2.40:1
Frame rate mode : Constant
Frame rate : 23.976 (24000/1001) FPS
Color space : YUV
Chroma subsampling : 4:2:0 (Type 0)
Bit depth : 10 bits
Bits/(Pixel*Frame) : 0.091
Stream size : 3.34 GiB (70%)
Title : 1080p / 10bit / DS4K / HMAX / WEBRip / Q13 / HPL / HEVC ~ The.PunisheR
Default : Yes
Forced : No
Color range : Limited
Color primaries : BT.709
Transfer characteristics : BT.709
Matrix coefficients : BT.709

Audio #1
ID : 2
Format : E-AC-3
Format/Info : Enhanced Audio Coding 3
Format settings, Endianness : Big
Codec ID : A_EAC3
Duration : 2 h 22 min
Bit rate mode : Constant
Bit rate : 640 kb/s
Channel(s) : 6 channels
Channel positions : Front: L C R, Side: L R, LFE
Sampling rate : 48.0 kHz
Frame rate : 187.500 FPS (256 SPF)
Compression mode : Lossy
Delay relative to video : 1 s 23 ms
Stream size : 653 MiB (13%)
Title : Org. AMZN / DD+5.1 / 640kbps / 48kHz ~ The.PunisheR
Language : Hindi
Service kind : Complete Main
Default : Yes
Forced : Yes

Audio #2
ID : 3
Format : E-AC-3
Format/Info : Enhanced Audio Coding 3
Format profile : E-AC-3+Atmos / E-AC-3
Format settings, Endianness : Big
Codec ID : A_EAC3
Duration : 2 h 22 min
Bit rate mode : Constant
Bit rate : 768 kb/s
Channel(s) : 15 objects / 6 channels
Channel positions : 15 objects / Front: L C R, Side: L R, LFE
Sampling rate : 48.0 kHz
Frame rate : 187.500 FPS (256 SPF)
Compression mode : Lossy
Stream size : 784 MiB (16%)
Title : DD+5.1 / Atmos / 768kbps / 48kHz ~ The.PunisheR
Language : English
Service kind : Complete Main
Default : No
Forced : No

Fantastic-Beasts-The-Secrets-of-Dumbledore-2022-1080p-10bit-DS4-K-HMAX-WEBRip-Org-DDP5-1-Hindi-DDP5-

Google Drive Link 1 https://new.gdtot.re/file/15284093676

Google Drive Link 2 : https://new.gdtot.re/file/2054031483

Index Link (Direct Download) :   https://bit.ly/3akNBV9

Other Site Encodes Release  : https://1337x.to/user/Sava/

Article By :
Uploder / Encoder
5 2 votes
Article Rating
Subscribe
Notify of
guest
4 Comments
Oldest
Newest Most Voted
Inline Feedbacks
View all comments
Aarya Shri
Aarya Shri
3 months ago

🥳🥳🥳🥳🥳🥳

Pls upload Dirty Grandpa (2016) [BD](HEVC) 1080p

Vishal
Vishal
3 months ago

Sir ji (hashar A live story 2008) Babbu Maan ki movie upload plz h265 may

Emon
Emon
3 months ago

admin bro always upload untouched version. size is not issue. only quality matters.always upload the best web dl. and thanks to u and your team for sharing these with us. Take love

Last edited 3 months ago by Emon