Fantastic Beasts – The Secrets Of Dumbledore (2022)1080p.10bit.BluRay.[Org.DDP5.1-Hindi+DDP7.1-English].ESub.HEVC | The.PunisheR | 4.4 GB|

Fantastic.Beasts-The.Secrets.Of.Dumbledore.2022.1080p.10bit.BluRay.[Org.DDP5.1-Hindi+DDP7.1-English].ESub.HEVC-The.PunisheR.mkv (4.4 GB)

MediaInfos:
General
Unique ID : 11617158324530714651693631711532530108 (0x8BD62208302D23B29053381E263B9BC)
Complete name : Fantastic.Beasts-The.Secrets.Of.Dumbledore.2022.1080p.10bit.BluRay.[Org.DDP5.1-Hindi+DDP7.1-English].ESub.HEVC-The.PunisheR.mkv
Format : Matroska
Format version : Version 4 / Version 2
File size : 4.45 GiB
Duration : 2 h 22 min
Overall bit rate : 4 460 kb/s
Movie name : The.PunisheR
Encoded date : UTC 2022-06-21 15:10:20
Writing application : mkvmerge v68.0.0 (‘The Curtain’) 64-bit
Writing library : libebml v1.4.2 + libmatroska v1.6.4
Attachments : Encoded-By-The-PunisheR.jpg

Video
ID : 1
Format : HEVC
Format/Info : High Efficiency Video Coding
Format profile : Main [email protected]@High
Codec ID : V_MPEGH/ISO/HEVC
Duration : 2 h 22 min
Bit rate : 3 050 kb/s
Width : 1 920 pixels
Height : 804 pixels
Display aspect ratio : 2.40:1
Frame rate mode : Constant
Frame rate : 23.976 (24000/1001) FPS
Color space : YUV
Chroma subsampling : 4:2:0 (Type 0)
Bit depth : 10 bits
Bits/(Pixel*Frame) : 0.082
Stream size : 3.04 GiB (68%)
Title : 1080p / 10bit / BluRay / Q14 / HPL / HEVC ~ The.PunisheR
Default : Yes
Forced : No
Color range : Limited
Color primaries : BT.709
Transfer characteristics : BT.709
Matrix coefficients : BT.709

Audio #1
ID : 2
Format : E-AC-3
Format/Info : Enhanced Audio Coding 3
Format settings, Endianness : Big
Codec ID : A_EAC3
Duration : 2 h 22 min
Bit rate mode : Constant
Bit rate : 640 kb/s
Channel(s) : 6 channels
Channel positions : Front: L C R, Side: L R, LFE
Sampling rate : 48.0 kHz
Frame rate : 187.500 FPS (256 SPF)
Compression mode : Lossy
Delay relative to video : 1 s 23 ms
Stream size : 653 MiB (14%)
Title : Org. Amz / DD+5.1 / 640kbps / 48kHz ~ The.PunisheR
Language : Hindi
Service kind : Complete Main
Default : Yes
Forced : Yes

Audio #2
ID : 3
Format : E-AC-3
Format/Info : Enhanced Audio Coding 3
Format profile : E-AC-3+Dep / E-AC-3
Format settings, Endianness : Big
Codec ID : A_EAC3
Duration : 2 h 22 min
Bit rate mode : Constant
Bit rate : 768 kb/s / 430 kb/s
Channel(s) : 8 channels / 6 channels
Channel positions : Front: L C R, Side: L R, Back: L R, LFE / Front: L C R, Side: L R, LFE
Sampling rate : 48.0 kHz
Frame rate : 187.500 FPS (256 SPF)
Compression mode : Lossy
Stream size : 784 MiB (17%)
Title : DD+7.1 / 768kbps / 48kHz (Core: DD+5.1 / 430kbps / 48kHz) ~ The.PunisheR
Language : English
Service kind : Complete Main
Default : No
Forced : No

Fantastic.Beasts-The.Secrets.Of.Dumbledore.2022.1080p.10bit.BluRay.[Org.DDP5.1-Hindi+DDP7.1-English].ESub.HEVC-The.PunisheR.mkv [4.45 GiB]

Google Drive Link 1 : https://new.gdtot.xyz/file/9546450485

Google Drive Link 2 : https://gdflix.pro/file/pdRLVmS9Qe

Article By :
Uploder / Encoder
4 1 vote
Article Rating
Subscribe
Notify of
guest
0 Comments
Inline Feedbacks
View all comments