Infinite (2021) 1080p CBR AMZN.WEB-DL Hindi DDP.5.1 H264 | LOGiC | 5.88GB |

Hindi only

Infinite.2021.1080p.CBR.AMZN.WEB-DL.Hindi.DDP.5.1.H264-LOGiC.mkv – 5.88 GB
https://linksly.co/VmU4B

======================

MULTI audio DD+ 640kbps

Infinite.2021.1080p.CBR.AMZN.WEB-DL.DDP.5.1.Multi.H264.MSub-LOGiC.mkv – 7.34 GB
https://linksly.co/4IE9

Infinite.2021.1080p.VBR.AMZN.WEB-DL.DDP.5.1.Multi.H264.MSub-LOGiC.mkv – 5.25 GB
https://linksly.co/S2IM

====================

Multi 192kbps

Infinite.2021.720p.AMZN.WEB-DL.DDP.192kbps.H264-LOGiC.mkv – 1.3 GB
https://linksly.co/JR9Zf

ℹ️ General:

General
Unique ID : 244985274494590650129350264506757781627 (0xB84E7296753B1F13BD50F748685D987B)
Complete name : F:\Infinite.2021.1080p.CBR.AMZN.WEB-DL.DDP.5.1.Multi.H264.MSub-LOGiC.mkv
Format : Matroska
Format version : Version 4
File size : 7.34 GiB
Duration : 1 h 48 min
Overall bit rate : 9 655 kb/s
Movie name : Infinite 2021 – LOGiC – https://t.me/logicrips
Encoded date : UTC 2022-07-19 16:07:47
Writing application : mkvmerge v41.0.0 (‘Smarra’) 64-bit
Writing library : libebml v1.3.9 + libmatroska v1.5.2

Video
ID : 1
Format : AVC
Format/Info : Advanced Video Codec
Format profile : [email protected]
Format settings : CABAC / 4 Ref Frames
Format settings, CABAC : Yes
Format settings, Reference frames : 4 frames
Codec ID : V_MPEG4/ISO/AVC
Duration : 1 h 48 min
Bit rate mode : Constant
Bit rate : 6 903 kb/s
Nominal bit rate : 10 000 kb/s
Width : 1 920 pixels
Height : 800 pixels
Display aspect ratio : 2.40:1
Frame rate mode : Constant
Frame rate : 23.976 (24000/1001) FPS
Color space : YUV
Chroma subsampling : 4:2:0
Bit depth : 8 bits
Scan type : Progressive
Bits/(Pixel*Frame) : 0.187
Stream size : 5.25 GiB (71%)
Title : AMZN / WEB-DL / 1080p – LOGiC
Default : Yes
Forced : No
Color range : Limited
Color primaries : BT.709
Transfer characteristics : BT.709
Matrix coefficients : BT.709

Audio #1
ID : 2
Format : E-AC-3
Format/Info : Enhanced AC-3
Commercial name : Dolby Digital Plus
Codec ID : A_EAC3
Duration : 1 h 48 min
Bit rate mode : Constant
Bit rate : 640 kb/s
Channel(s) : 6 channels
Channel layout : L R C LFE Ls Rs
Sampling rate : 48.0 kHz
Frame rate : 31.250 FPS (1536 SPF)
Compression mode : Lossy
Stream size : 498 MiB (7%)
Title : AMZN / DD+ / 640kbps – LOGiC
Language : Hindi
Service kind : Complete Main
Default : Yes
Forced : Yes

Audio #2
ID : 3
Format : E-AC-3
Format/Info : Enhanced AC-3
Commercial name : Dolby Digital Plus
Codec ID : A_EAC3
Duration : 1 h 48 min
Bit rate mode : Constant
Bit rate : 640 kb/s
Channel(s) : 6 channels
Channel layout : L R C LFE Ls Rs
Sampling rate : 48.0 kHz
Frame rate : 31.250 FPS (1536 SPF)
Compression mode : Lossy
Stream size : 498 MiB (7%)
Title : AMZN / DD+ / 640kbps – LOGiC
Language : English
Service kind : Complete Main
Default : No
Forced : No

Audio #3
ID : 4
Format : E-AC-3
Format/Info : Enhanced AC-3
Commercial name : Dolby Digital Plus
Codec ID : A_EAC3
Duration : 1 h 48 min
Bit rate mode : Constant
Bit rate : 640 kb/s
Channel(s) : 6 channels
Channel layout : L R C LFE Ls Rs
Sampling rate : 48.0 kHz
Frame rate : 31.250 FPS (1536 SPF)
Compression mode : Lossy
Stream size : 498 MiB (7%)
Title : AMZN / DD+ / 640kbps – LOGiC
Language : Tamil
Service kind : Complete Main
Default : No
Forced : No

Audio #4
ID : 5
Format : E-AC-3
Format/Info : Enhanced AC-3
Commercial name : Dolby Digital Plus
Codec ID : A_EAC3
Duration : 1 h 48 min
Bit rate mode : Constant
Bit rate : 640 kb/s
Channel(s) : 6 channels
Channel layout : L R C LFE Ls Rs
Sampling rate : 48.0 kHz
Frame rate : 31.250 FPS (1536 SPF)
Compression mode : Lossy
Stream size : 498 MiB (7%)
Title : AMZN / DD+ / 640kbps – LOGiC
Language : Telugu
Service kind : Complete Main
Default : No
Forced : No

Article By :
Uploder / Encoder
0 0 votes
Article Rating
Subscribe
Notify of
guest
1 Comment
Oldest
Newest Most Voted
Inline Feedbacks
View all comments
Sanjiv kumar
Sanjiv kumar
2 months ago

Thank you, sir plz upload Bollywood movies in Remix also