Jai Bhim 2021 1080p 10bit DS4K AMZN WEBRip HIN – TAM DDP5.1 ESub HEVC | The.PunisheR | 5.70GB

Jai.Bhim.2021.1080p.10bit.DS4K.AMZN.WEBRip.HIN-TAM.DDP5.1.ESub.HEVC-The.PunisheR – 5.70GB

General
Unique ID : 50213475823723529422584404009317451570 (0x25C6C37FE1AC4664573DC362E7264732)
Complete name : Jai.Bhim.2021.1080p.10bit.DS4K.AMZN.WEBRip.HIN-TAM.DDP5.1.ESub.HEVC-The.PunisheR.mkv
Format : Matroska
Format version : Version 4
File size : 5.70 GiB
Duration : 2 h 44 min
Overall bit rate : 4 977 kb/s
Movie name : The.PunisheR
Encoded date : UTC 2021-11-04 05:18:53
Writing application : mkvmerge v62.0.0 ('Apollo') 64-bit
Writing library : libebml v1.4.2 + libmatroska v1.6.4
Attachments : Encoded.By-The.PunisheR.jpg

Video
ID : 1
Format : HEVC
Format/Info : High Efficiency Video Coding
Format profile : Main [email protected]@Main
Codec ID : V_MPEGH/ISO/HEVC
Duration : 2 h 44 min
Bit rate : 3 694 kb/s
Width : 1 920 pixels
Height : 810 pixels
Display aspect ratio : 2.40:1
Frame rate mode : Constant
Frame rate : 24.000 FPS
Color space : YUV
Chroma subsampling : 4:2:0
Bit depth : 10 bits
Bits/(Pixel*Frame) : 0.099
Stream size : 4.23 GiB (74%)
Title : 1080p / 10bit / DS4K / AMZN / WEBRip / Q17.5 / HEVC ~ The.PunisheR
Language : Tamil
Default : Yes
Forced : Yes
Color range : Limited
Color primaries : BT.709
Transfer characteristics : BT.709
Matrix coefficients : BT.709

Audio #1
ID : 2
Format : E-AC-3
Format/Info : Enhanced AC-3
Commercial name : Dolby Digital Plus
Codec ID : A_EAC3
Duration : 2 h 44 min
Bit rate mode : Constant
Bit rate : 640 kb/s
Channel(s) : 6 channels
Channel layout : L R C LFE Ls Rs
Sampling rate : 48.0 kHz
Frame rate : 31.250 FPS (1536 SPF)
Compression mode : Lossy
Stream size : 751 MiB (13%)
Title : UNCUT / AMZN / DD+ 5.1 / 640kbps / 48kHz ~ The.PunisheR
Language : Hindi
Service kind : Complete Main
Default : Yes
Forced : Yes

Audio #2
ID : 3
Format : E-AC-3
Format/Info : Enhanced AC-3
Commercial name : Dolby Digital Plus
Codec ID : A_EAC3
Duration : 2 h 44 min
Bit rate mode : Constant
Bit rate : 640 kb/s
Channel(s) : 6 channels
Channel layout : L R C LFE Ls Rs
Sampling rate : 48.0 kHz
Frame rate : 31.250 FPS (1536 SPF)
Compression mode : Lossy
Stream size : 751 MiB (13%)
Title : DD+ 5.1 / 640kbps / 48kHz ~ The.PunisheR
Language : Tamil
Service kind : Complete Main
Default : No
Forced : No

Text #1
ID : 4
Format : UTF-8
Codec ID : S_TEXT/UTF8
Codec ID/Info : UTF-8 Plain Text
Duration : 2 h 38 min
Bit rate : 76 b/s
Count of elements : 2418
Stream size : 88.6 KiB (0%)
Title : English [SDH]
Language : English
Default : No
Forced : No

Text #2
ID : 5
Format : UTF-8
Codec ID : S_TEXT/UTF8
Codec ID/Info : UTF-8 Plain Text
Duration : 2 h 38 min
Bit rate : 76 b/s
Count of elements : 2406
Stream size : 88.2 KiB (0%)
Title : English
Language : English
Default : No
Forced : No

Google Drive Link  : https://new.gdtot.xyz/file/6123784574

Other Site Encodes Release  : https://1337x.to/user/Sava/

Article By :
Encoder
0 0 votes
Article Rating
Subscribe
Notify of
guest
0 Comments
Inline Feedbacks
View all comments