Jayeshbhai Jordaar (2022) Hindi.1080p.10bit.DS4K.AMZN.WEBRip.DD+5.1.MSubs.HEVC-| The PunisheR | 4.2 GB |

Jayeshbhai Jordaar (2022) Hindi.1080p.10bit.DS4K.AMZN.WEBRip.DD+5.1.MSubs.HEVC-| The PunisheR | 4.2 GB |

MediaInfos:
General
Unique ID : 114817894794784874467104477816222228265 (0x56611F46C62F3D81D0044A03BC819F29)
Complete name : Jayeshbhai.Jordaar.2022.Hindi.1080p.10bit.DS4K.AMZN.WEBRip.DD+5.1.MSubs.HEVC-The.PunisheR.mkv
Format : Matroska
Format version : Version 4 / Version 2
File size : 4.21 GiB
Duration : 2 h 1 min
Overall bit rate : 4 959 kb/s
Movie name : The.PunisheR
Encoded date : UTC 2022-06-14 04:53:01
Writing application : mkvmerge v68.0.0 (‘The Curtain’) 64-bit
Writing library : libebml v1.4.2 + libmatroska v1.6.4
Attachments : Encoded-By-The-PunisheR.jpg

Video
ID : 1
Format : HEVC
Format/Info : High Efficiency Video Coding
Format profile : Main [email protected]@High
Codec ID : V_MPEGH/ISO/HEVC
Duration : 2 h 1 min
Bit rate : 4 316 kb/s
Width : 1 920 pixels
Height : 800 pixels
Display aspect ratio : 2.40:1
Frame rate mode : Constant
Frame rate : 24.000 FPS
Color space : YUV
Chroma subsampling : 4:2:0 (Type 0)
Bit depth : 10 bits
Bits/(Pixel*Frame) : 0.117
Stream size : 3.67 GiB (87%)
Title : 1080p / 10bit / DS4K / AMZN / WEBRip / Q15 / HPL / HEVC ~ The.PunisheR
Default : Yes
Forced : No
Color range : Limited
Color primaries : BT.709
Transfer characteristics : BT.709
Matrix coefficients : BT.709

Audio
ID : 2
Format : E-AC-3
Format/Info : Enhanced Audio Coding 3
Format settings, Endianness : Big
Codec ID : A_EAC3
Duration : 2 h 1 min
Bit rate mode : Constant
Bit rate : 640 kb/s
Channel(s) : 6 channels
Channel positions : Front: L C R, Side: L R, LFE
Sampling rate : 48.0 kHz
Frame rate : 187.500 FPS (256 SPF)
Compression mode : Lossy
Stream size : 557 MiB (13%)
Title : DD+5.1 / 640kbps / 48kHz ~ The.PunisheR
Language : Hindi
Service kind : Complete Main
Default : Yes
Forced : Yes

Google Drive Link  : https://new.gdtot.xyz/file/9049062545

Sharer Link : https://sharer.pw/file/US3I13Z5rKt9

Other Site Encodes Release  : https://1337x.to/user/Sava/

Article By :
Uploder / Encoder
5 1 vote
Article Rating
Subscribe
Notify of
guest
3 Comments
Oldest
Newest Most Voted
Inline Feedbacks
View all comments
Abhishek Jaiswal
Abhishek Jaiswal
3 months ago

Finally, after a very long time found your website.
Please don’t let this site die. This was the best website for quality lovers.

Last edited 3 months ago by Abhishek Jaiswal
Bhavesh Parekh
Bhavesh Parekh
3 months ago

Thanks buddy.😄