Jurassic World Dominion (2022) EXTENDED 1080p BluRay REMUX x264 AVC [Org AMZN Hindi DDP 5.1 ~ 640Kbps + English DTS-HDMA 7.1] ESubs 30GB

Qnap - [ MediaInfo ] [ HD Station ] Get information on your media files | Forum des NAS : Synology, Qnap, Asustor...

Complete name : Jurassic World Dominion (2022) EXTENDED 1080p BluRay REMUX x264 AVC [Org AMZN Hindi DDP 5.1 _ 640Kbps + English DTS-HDMA 7.1] ESubs _ FraMeSToR.mkv
Format : Matroska
Format version : Version 4
File size : 30.1 GiB
Duration : 2 h 40 min
Overall bit rate mode : Variable
Overall bit rate : 26.8 Mb/s
Movie name : Jurassic World Dominion (2022) – Downloaded from OlaMovies.Top
Writing application : mkvmerge v68.0.0 (‘The Curtain’) 64-bit
Writing library : libebml v1.4.2 + libmatroska v1.6.4
IMDB : tt8041270
TMDB : movie/507086

Video
ID : 1
Format : AVC
Format/Info : Advanced Video Codec
Format profile : [email protected]
Format settings : CABAC / 2 Ref Frames
Format settings, CABAC : Yes
Format settings, Reference frames : 2 frames
Format settings, GOP : M=1, N=10
Codec ID : V_MPEG4/ISO/AVC
Duration : 2 h 40 min
Bit rate mode : Variable
Bit rate : 22.8 Mb/s
Width : 1 920 pixels
Height : 1 080 pixels
Display aspect ratio : 16:9
Frame rate mode : Constant
Frame rate : 23.976 (24000/1001) FPS
Color space : YUV
Chroma subsampling : 4:2:0
Bit depth : 8 bits
Scan type : Progressive
Bits/(Pixel*Frame) : 0.459
Stream size : 25.6 GiB (85%)
Default : Yes
Forced : No

Audio #1
ID : 2
Format : E-AC-3
Format/Info : Enhanced AC-3
Commercial name : Dolby Digital Plus
Codec ID : A_EAC3
Duration : 2 h 40 min
Bit rate mode : Constant
Bit rate : 640 kb/s
Channel(s) : 6 channels
Channel layout : L R C LFE Ls Rs
Sampling rate : 48.0 kHz
Frame rate : 31.250 FPS (1536 SPF)
Compression mode : Lossy
Stream size : 736 MiB (2%)
Title : Ext. Hindi (AMZ) DDP 5.1 640Kbps ~ PeruGuy
Language : Hindi
Service kind : Complete Main
Default : Yes
Forced : No

Audio #2
ID : 3
Format : DTS XLL X
Format/Info : Digital Theater Systems
Commercial name : DTS-HD Master Audio
Codec ID : A_DTS
Duration : 2 h 40 min
Bit rate mode : Variable
Bit rate : 3 301 kb/s
Channel(s) : 8 channels
Channel(s)_Original : Object Based
ChannelLayout_Original : Object Based
Sampling rate : 48.0 kHz
Frame rate : 93.750 FPS (512 SPF)
Bit depth : 24 bits
Stream size : 3.70 GiB (12%)
Title : DTS-HD MA 7.1
Language : English
Default : Yes
Forced : No

Text #1
ID : 4
Format : PGS
Muxing mode : zlib
Codec ID : S_HDMV/PGS
Codec ID/Info : Picture based subtitle format used on BDs/HD-DVDs
Duration : 2 h 37 min
Bit rate : 36.8 kb/s
Count of elements : 4074
Stream size : 41.5 MiB (0%)
Title : English (SDH)
Language : English
Default : No
Forced : No

Text #2
ID : 5
Format : PGS
Muxing mode : zlib
Codec ID : S_HDMV/PGS
Codec ID/Info : Picture based subtitle format used on BDs/HD-DVDs
Duration : 2 h 36 min
Bit rate : 32.7 kb/s
Count of elements : 3404
Stream size : 36.6 MiB (0%)
Title : French
Language : French
Default : No
Forced : No

Text #3
ID : 6
Format : PGS
Muxing mode : zlib
Codec ID : S_HDMV/PGS
Codec ID/Info : Picture based subtitle format used on BDs/HD-DVDs
Duration : 2 h 36 min
Bit rate : 31.1 kb/s
Count of elements : 3424
Stream size : 34.9 MiB (0%)
Title : Spanish (Latin American)
Language : Spanish
Default : No
Forced : No

HD Website Screenshot API | ScreenshotAPI.net
File:U (micro) Torrent logo.svg - Wikimedia Commons

Click Here For Download

Article By :
I am uploader thats it
0 0 votes
Article Rating
Subscribe
Notify of
guest
2 Comments
Oldest
Newest Most Voted
Inline Feedbacks
View all comments
An old user
An old user
2 months ago

Earlier you used to give gdtot links and now torrent links. Why this change bro? Gdtot is much better. Please if possible start sharing in Gdtot links (with ads obviously).