K.G.F.Chapter.1 & 2 .Hindi (2018-2022) 1080p.10bit.AMZN.WEBRip.DDP5.1.MSubs.HEVC | The.PunisheR – | 4.01 GB | 5.3 GB |

K.G.F.Chapter.1.Hindi.2018.1080p.10bit.AMZN.WEBRip.DDP5.1.MSubs.HEVC-The.PunisheR.mkv – [4.01 GB]

——————————————————————

K.G.F.Chapter.2.2022.Hindi.1080p.10bit.AMZN.WEBRip.DDP5.1.ESub.HEVC-The.PunisheR.mkv [5.3 GB]

MediaInfos:
General
Unique ID : 75850371617334579882360671790612579685 (0x3910400D0BE19A2D064BF6C4585F8565)
Complete name : K.G.F.Chapter.2.2022.Hindi.1080p.10bit.AMZN.WEBRip.DDP5.1.ESub.HEVC-The.PunisheR.mkv
Format : Matroska
Format version : Version 4 / Version 2
File size : 5.27 GiB
Duration : 2 h 45 min
Overall bit rate : 4 546 kb/s
Movie name : The.PunisheR
Encoded date : UTC 2022-05-17 05:12:47
Writing application : mkvmerge v67.0.0 (‘Under Stars’) 64-bit
Writing library : libebml v1.4.2 + libmatroska v1.6.4
Attachments : Encoded-By-The-PunisheR.jpg

Video
ID : 1
Format : HEVC
Format/Info : High Efficiency Video Coding
Format profile : Main [email protected]@High
Codec ID : V_MPEGH/ISO/HEVC
Duration : 2 h 45 min
Bit rate : 3 904 kb/s
Width : 1 920 pixels
Height : 818 pixels
Display aspect ratio : 2.35:1
Frame rate mode : Constant
Frame rate : 24.000 FPS
Color space : YUV
Chroma subsampling : 4:2:0 (Type 0)
Bit depth : 10 bits
Bits/(Pixel*Frame) : 0.104
Stream size : 4.53 GiB (86%)
Title : 1080p / 10bit / AMZN / WEBRip / Q17 / HPL / HEVC ~ The.PunisheR
Default : Yes
Forced : No
Color range : Limited
Color primaries : BT.709
Transfer characteristics : BT.709
Matrix coefficients : BT.709

Audio
ID : 2
Format : E-AC-3
Format/Info : Enhanced Audio Coding 3
Format settings, Endianness : Big
Codec ID : A_EAC3
Duration : 2 h 45 min
Bit rate mode : Constant
Bit rate : 640 kb/s
Channel(s) : 6 channels
Channel positions : Front: L C R, Side: L R, LFE
Sampling rate : 48.0 kHz
Frame rate : 187.500 FPS (256 SPF)
Compression mode : Lossy
Stream size : 760 MiB (14%)
Title : DD+5.1/ 640kbps/ 48kHz ~ The.PunisheR
Language : Hindi
Service kind : Complete Main
Default : No
Forced : No

K.G.F.Chapter.1.Hindi.2018.1080p.10bit.AMZN.WEBRip.DDP5.1.MSubs.HEVC-The.PunisheR.mkv – [4.01 GB]

Google Drive Link1 : https://new.gdtot.xyz/file/8621865613

Google Drive Link 2 : https://gdflix.pro/file/t4bBsPBhUa

Sharer Link : https://sharer.pw/file/QE3Cv3OvSz5K


K.G.F.Chapter.2.2022.Hindi.1080p.10bit.AMZN.WEBRip.DDP5.1.ESub.HEVC-The.PunisheR.mkv [5.3 GB]

Google Drive Link 1 : https://new.gdtot.xyz/file/56586357543

Google Drive Link 2 : https://gdflix.pro/file/7sSftMSVJV

Sharer Link : https://sharer.pw/file/A4NX51TfAhBR

Other Site Encodes Release  : https://1337x.to/user/Sava/

Article By :
Uploder / Encoder
4 2 votes
Article Rating
Subscribe
Notify of
guest
2 Comments
Oldest
Newest Most Voted
Inline Feedbacks
View all comments
Bhavesh Parekh
Bhavesh Parekh
3 months ago

Thanks
Pls upload more hindi movies 1020x1080p. Hindi