Mahabharat Season Complete 1080p DVD Rip 75GB

Mahabharat: Amazon.in: Nitish Bharadwaj, Puneet Issar, Arun Bakshi, Pramod Kumar, Alok Mukherjee, B. R. Chopra, Ravi Chopra, Nitish Bharadwaj, Puneet Issar: Movies & TV Shows
Qnap - [ MediaInfo ] [ HD Station ] Get information on your media files | Forum des NAS : Synology, Qnap, Asustor...

Complete name : देवकासुर और तृलंबसूर वध – Mahabharat Stories – B. R. Chopra – EP – 15.mp4
Format : MPEG-4
Format profile : Base Media
Codec ID : isom (isom/iso2/avc1/mp41)
File size : 826 MiB
Duration : 45 min 4 s
Overall bit rate mode : Variable
Overall bit rate : 2 561 kb/s

Video
ID : 1
Format : AVC
Format/Info : Advanced Video Codec
Format profile : [email protected]
Format settings : CABAC / 3 Ref Frames
Format settings, CABAC : Yes
Format settings, Reference frames : 3 frames
Codec ID : avc1
Codec ID/Info : Advanced Video Coding
Duration : 45 min 4 s
Bit rate : 2 429 kb/s
Width : 1 920 pixels
Height : 1 080 pixels
Display aspect ratio : 16:9
Frame rate mode : Constant
Frame rate : 25.000 FPS
Color space : YUV
Chroma subsampling : 4:2:0
Bit depth : 8 bits
Scan type : Progressive
Bits/(Pixel*Frame) : 0.047
Stream size : 783 MiB (95%)
Title : ISO Media file produced by Google Inc.
Writing library : x264 core 155 r2901 7d0ff22
Color range : Limited
Color primaries : BT.709
Transfer characteristics : BT.709
Matrix coefficients : BT.709
Codec configuration box : avcC

Audio
ID : 2
Format : AAC LC
Format/Info : Advanced Audio Codec Low Complexity
Codec ID : mp4a-40-2
Duration : 45 min 4 s
Bit rate mode : Variable
Bit rate : 128 kb/s
Channel(s) : 2 channels
Channel layout : L R
Sampling rate : 44.1 kHz
Frame rate : 43.066 FPS (1024 SPF)
Compression mode : Lossy
Stream size : 41.3 MiB (5%)
Title : ISO Media file produced by Google Inc.
Default : Yes

HD Website Screenshot API | ScreenshotAPI.net
15-Mahabharat-Stories-B-R-Chopra-EP-15-mp4-snapshot-02-02-2022-08-08-08-03-2615-Mahabharat-Stories-B-R-Chopra-EP-15-mp4-snapshot-07-58-2022-08-08-08-03-3215-Mahabharat-Stories-B-R-Chopra-EP-15-mp4-snapshot-23-27-2022-08-08-08-03-3915-Mahabharat-Stories-B-R-Chopra-EP-15-mp4-snapshot-33-05-2022-08-08-08-03-4425-Mahabharat-Stories-B-R-Chopra-EP-25-mp4-snapshot-14-53-2022-08-08-08-03-5925-Mahabharat-Stories-B-R-Chopra-EP-25-mp4-snapshot-31-29-2022-08-08-08-04-0625-Mahabharat-Stories-B-R-Chopra-EP-25-mp4-snapshot-41-34-2022-08-08-08-04-11

Click Here To Download 

Article By :
I am uploader thats it
5 1 vote
Article Rating
Subscribe
Notify of
guest
4 Comments
Oldest
Newest Most Voted
Inline Feedbacks
View all comments
903
903
1 month ago

Please Upload in Hindi DDP+5.1

Th3W1tch3r
Th3W1tch3r
1 month ago

Please Can You Upload “Devon Ke Dev Mahadev” all Seasons 1080p in torrent OR Mega