Mississippi.Masala.1991.1080p._.REMUX.AVC.DTS.2.0-FGT Hindi-Eng 5GB


Complete name : Mississippi.Masala.1991.1080p.BluRay.REMUX.AVC.DTS.2.0-FGT Hindi-Eng.mkv
Format : Matroska
Format version : Version 4
File size : 5.52 GiB
Duration : 1 h 57 min
Overall bit rate : 6 698 kb/s
Movie name : Mississippi.Masala.1991.1080p.BluRay.REMUX.AVC.DTS-HD.MA.2.0-FGT
Encoded date : UTC 2022-06-14 19:07:46
Writing application : mkvmerge v68.0.0 (‘The Curtain’) 64-bit
Writing library : libebml v1.4.2 + libmatroska v1.6.3 / Lavf59.16.100

Video
ID : 1
Format : AVC
Format/Info : Advanced Video Codec
Format profile : [email protected]
Format settings : CABAC / 4 Ref Frames
Format settings, CABAC : Yes
Format settings, Reference frames : 4 frames
Codec ID : V_MPEG4/ISO/AVC
Duration : 1 h 57 min
Bit rate : 5 000 kb/s
Width : 1 920 pixels
Height : 1 080 pixels
Display aspect ratio : 16:9
Frame rate mode : Constant
Frame rate : 23.976 (24000/1001) FPS
Color space : YUV
Chroma subsampling : 4:2:0
Bit depth : 8 bits
Scan type : Progressive
Bits/(Pixel*Frame) : 0.101
Stream size : 4.06 GiB (74%)
Writing library : x264 core 163 r3060 5db6aa6
Encoding settings : cabac=1 / ref=3 / deblock=1:0:0 / analyse=0x3:0x113 / me=hex / subme=7 / psy=1 / psy_rd=1.00:0.00 / mixed_ref=1 / me_range=16 / chroma_me=1 / trellis=1 / 8x8dct=1 / cqm=0 / deadzone=21,11 / fast_pskip=1 / chroma_qp_offset=-2 / threads=6 / lookahead_threads=1 / sliced_threads=0 / nr=0 / decimate=1 / interlaced=0 / bluray_compat=0 / constrained_intra=0 / bframes=3 / b_pyramid=2 / b_adapt=1 / b_bias=0 / direct=1 / weightb=1 / open_gop=0 / weightp=2 / keyint=250 / keyint_min=23 / scenecut=40 / intra_refresh=0 / rc_lookahead=40 / rc=abr / mbtree=1 / bitrate=5000 / ratetol=1.0 / qcomp=0.60 / qpmin=0 / qpmax=69 / qpstep=4 / ip_ratio=1.40 / aq=1:1.00
Default : No
Forced : No

Audio #1
ID : 2
Format : DTS
Format/Info : Digital Theater Systems
Codec ID : A_DTS
Duration : 1 h 57 min
Bit rate mode : Constant
Bit rate : 1 536 kb/s
Channel(s) : 2 channels
Channel layout : L R
Sampling rate : 48.0 kHz
Frame rate : 93.750 FPS (512 SPF)
Bit depth : 16 bits
Compression mode : Lossy
Stream size : 1.26 GiB (23%)
Title : DD 2.0
Writing library : Lavc59.18.100 dca
Language : English
Default : No
Forced : No

Audio #2
ID : 3
Format : AC-3
Format/Info : Audio Coding 3
Commercial name : Dolby Digital
Codec ID : A_AC3
Duration : 1 h 57 min
Bit rate mode : Constant
Bit rate : 224 kb/s
Channel(s) : 2 channels
Channel layout : L R
Sampling rate : 48.0 kHz
Frame rate : 31.250 FPS (1536 SPF)
Compression mode : Lossy
Stream size : 189 MiB (3%)
Service kind : Complete Main
Default : Yes
Forced : No

Menu
00:00:00.000 : 00:00:00.000
00:08:08.988 : 00:08:08.988
00:14:52.808 : 00:14:52.808
00:23:34.037 : 00:23:34.037
00:27:52.921 : 00:27:52.921
00:30:48.596 : 00:30:48.596
00:41:46.170 : 00:41:46.170
00:49:45.816 : 00:49:45.816
01:00:11.149 : 01:00:11.149
01:06:53.926 : 01:06:53.926
01:11:24.029 : 01:11:24.029
01:18:23.031 : 01:18:23.031
01:25:54.023 : 01:25:54.023
01:33:11.627 : 01:33:11.627
01:43:38.670 : 01:43:38.670
01:48:00.640 : 01:48:00.640
01:51:13.792 : 01:51:13.792


https://linksly.co/ADZ9k

Alternative Link

https://linksly.co/isPv

Article By :
I am uploader thats it
0 0 votes
Article Rating
Subscribe
Notify of
guest
0 Comments
Inline Feedbacks
View all comments