Ms.Marvel S01 Complete /Ep.6 1080p 10bit DS4K DSNP WEBRip HIN-ENG DDP5.1 Atmos ESub HEVC | The PunisheR | 9.55 GB |

Ms.Marvel.S01E06.1080p.10bit.DS4K.DSNP.WEBRip.HIN-ENG.DDP5.1.Atmos.ESub.HEVC-The.PunisheR.mkv – [1.7 GB]

Link 1  : https://new1.gdtot.sbs/file/1829500606

Link 2  : https://new1.gdtot.sbs/file/3659001089

Ms.Marvel S01 Complete 1080p 10bit DS4K DSNP WEBRip HIN-ENG DDP5.1 Atmos ESub HEVC – The PunisheR – .RAR [9.55 GB]

Link 1  : https://new1.gdtot.sbs/file/10255882372

Link 2  : https://new1.gdtot.sbs/file/20511764621

Link 3 : https://sharer.pw/file/CrkLHtzCG5T5

Unique ID : 129535364069392989775715532564935565045 (0x61739A88ED37F1E8A4AA92B286115EF5)
Complete name : Ms.Marvel.S01E06.1080p.10bit.DS4K.DSNP.WEBRip.HIN-ENG.DDP5.1.Atmos.ESub.HEVC-The.PunisheR.mkv
Format : Matroska
Format version : Version 4 / Version 2
File size : 1.70 GiB
Duration : 46 min 51 s
Overall bit rate : 5 206 kb/s
Movie name : No Normal / The.PunisheR
Encoded date : UTC 2022-07-18 18:01:39
Writing application : mkvmerge v69.0.0 (‘Day And Age’) 64-bit
Writing library : libebml v1.4.2 + libmatroska v1.6.4
Attachments : Encoded.By-The.PunisheR.jpg

Video
ID : 1
Format : HEVC
Format/Info : High Efficiency Video Coding
Format profile : Main [email protected]@High
Codec ID : V_MPEGH/ISO/HEVC
Duration : 46 min 51 s
Bit rate : 4 243 kb/s
Width : 1 920 pixels
Height : 804 pixels
Display aspect ratio : 2.40:1
Frame rate mode : Constant
Frame rate : 24.000 FPS
Color space : YUV
Chroma subsampling : 4:2:0
Bit depth : 10 bits
Bits/(Pixel*Frame) : 0.115
Stream size : 1.39 GiB (81%)
Title : 1080p / 10bit / DS4K / DSNP / WEBRip / Q14.5 / HPL / HEVC ~ The.PunisheR
Default : Yes
Forced : No
Color range : Limited
Color primaries : BT.709
Transfer characteristics : BT.709
Matrix coefficients : BT.709

Audio #1
ID : 2
Format : E-AC-3
Format/Info : Enhanced Audio Coding 3
Format settings, Endianness : Big
Codec ID : A_EAC3
Duration : 46 min 51 s
Bit rate mode : Constant
Bit rate : 192 kb/s
Channel(s) : 6 channels
Channel positions : Front: L C R, Side: L R, LFE
Sampling rate : 48.0 kHz
Frame rate : 187.500 FPS (256 SPF)
Compression mode : Lossy
Stream size : 64.3 MiB (4%)
Title : DD+5.1 / 192kbps / 48kHz ~ The.PunisheR
Language : Hindi
Service kind : Complete Main
Default : Yes
Forced : Yes

Audio #2
ID : 3
Format : E-AC-3
Format/Info : Enhanced Audio Coding 3
Format profile : E-AC-3+Atmos / E-AC-3
Format settings, Endianness : Big
Codec ID : A_EAC3
Duration : 46 min 51 s
Bit rate mode : Constant
Bit rate : 768 kb/s
Channel(s) : 15 objects / 6 channels
Channel positions : 15 objects / Front: L C R, Side: L R, LFE
Sampling rate : 48.0 kHz
Frame rate : 187.500 FPS (256 SPF)
Compression mode : Lossy
Delay relative to video : 5 ms
Stream size : 257 MiB (15%)
Title : DD+5.1 / Atmos / 768kbps / 48kHz ~ The.PunisheR
Language : English
Service kind : Complete Main
Default : No
Forced : No

Text
ID : 4
Format : UTF-8
Codec ID : S_TEXT/UTF8
Codec ID/Info : UTF-8 Plain Text
Duration : 44 min 8 s
Bit rate : 57 b/s
Count of elements : 530
Stream size : 18.7 KiB (0%)
Title : English-SRT
Language : English
Default : No
Forced : No

Other Site Encodes Release  : https://1337x.to/user/Sava/

 

Article By :
Uploder / Encoder
0 0 votes
Article Rating
Subscribe
Notify of
guest
0 Comments
Inline Feedbacks
View all comments