Ms.Marvel (S01) E04 & E5 1080p 10bit.DS4K.DSNP.WEBRip.HIN-ENG.DDP5.1.Atmos.ESub.HEVC | The.PunisheR | 1.6 GB | 1.2 GB |

Ms.Marvel.S01E04.1080p.10bit.DS4K.DSNP.WEBRip.HIN-ENG.DDP5.1.Atmos.ESub.HEVC-The.PunisheR [1.6 GB]

https://new.gdtot.art/file/1672616877

Ms.Marvel.S01E05.1080p.10bit.DS4K.DSNP.WEBRip.HIN-ENG.DDP5.1.Atmos.ESub.HEVC-The.PunisheR [1.2 GB]

https://new.gdtot.art/file/1300956336

Will Be Added As Entire Season Releases

MediaInfos:
General
Unique ID : 183952394770921562862530582123453842955 (0x8A63F14A8147436A3CF41532379B860B)
Complete name : Ms.Marvel.S01E04.1080p.10bit.DS4K.DSNP.WEBRip.HIN-ENG.DDP5.1.Atmos.ESub.HEVC-The.PunisheR.mkv
Format : Matroska
Format version : Version 4 / Version 2
File size : 1.56 GiB
Duration : 45 min 27 s
Overall bit rate : 4 905 kb/s
Movie name : Seeing Red / The.PunisheR
Encoded date : UTC 2022-06-30 16:24:21
Writing application : mkvmerge v68.0.0 (‘The Curtain’) 64-bit
Writing library : libebml v1.4.2 + libmatroska v1.6.4
Attachments : Encoded.By-The.PunisheR.jpg

Video
ID : 1
Format : HEVC
Format/Info : High Efficiency Video Coding
Format profile : Main [email protected]@High
Codec ID : V_MPEGH/ISO/HEVC
Duration : 45 min 27 s
Bit rate : 3 943 kb/s
Width : 1 920 pixels
Height : 804 pixels
Display aspect ratio : 2.40:1
Frame rate mode : Constant
Frame rate : 24.000 FPS
Color space : YUV
Chroma subsampling : 4:2:0
Bit depth : 10 bits
Bits/(Pixel*Frame) : 0.106
Stream size : 1.25 GiB (80%)
Title : 1080p / 10bit / DS4K / DSNP / WEBRip / Q14.5 / HPL / HEVC ~ The.PunisheR
Default : Yes
Forced : No
Color range : Limited
Color primaries : BT.709
Transfer characteristics : BT.709
Matrix coefficients : BT.709

Audio #1
ID : 2
Format : E-AC-3
Format/Info : Enhanced Audio Coding 3
Format settings, Endianness : Big
Codec ID : A_EAC3
Duration : 45 min 27 s
Bit rate mode : Constant
Bit rate : 192 kb/s
Channel(s) : 6 channels
Channel positions : Front: L C R, Side: L R, LFE
Sampling rate : 48.0 kHz
Frame rate : 187.500 FPS (256 SPF)
Compression mode : Lossy
Stream size : 62.4 MiB (4%)
Title : DD+5.1 / 192kbps / 48kHz ~ The.PunisheR
Language : Hindi
Service kind : Complete Main
Default : Yes
Forced : Yes

Audio #2
ID : 3
Format : E-AC-3
Format/Info : Enhanced Audio Coding 3
Format profile : E-AC-3+Atmos / E-AC-3
Format settings, Endianness : Big
Codec ID : A_EAC3
Duration : 45 min 24 s
Bit rate mode : Constant
Bit rate : 768 kb/s
Channel(s) : 15 objects / 6 channels
Channel positions : 15 objects / Front: L C R, Side: L R, LFE
Sampling rate : 48.0 kHz
Frame rate : 187.500 FPS (256 SPF)
Compression mode : Lossy
Delay relative to video : 2 s 985 ms
Stream size : 249 MiB (16%)
Title : DD+5.1 / Atmos / 768kbps / 48kHz ~ The.PunisheR
Language : English
Service kind : Complete Main
Default : No
Forced : No

Other Site Encodes Release  : https://1337x.to/user/Sava/

Article By :
Uploder / Encoder
0 0 votes
Article Rating
Subscribe
Notify of
guest
1 Comment
Oldest
Newest Most Voted
Inline Feedbacks
View all comments
facc75505@gmail.com
[email protected]
2 months ago

Please upload … Ms Marvel episode 6 …