Murder 2 (2011) HEVC BluRay 4.7GB Encoded By SamDUploader

Murder 2 (2011) - Photo Gallery - IMDb

Complete name : Murder-2 2011 BD50 Vorbis 5.1 1080p Untouched_BlueRay 39GB.mkv
Format : Matroska
Format version : Version 4
File size : 4.62 GiB
Duration : 2 h 6 min
Overall bit rate mode : Variable
Overall bit rate : 5 219 kb/s
Writing application : Lavf59.17.102
Writing library : Lavf59.17.102
ErrorDetectionType : Per level 1

Video
ID : 1
Format : AVC
Format/Info : Advanced Video Codec
Format profile : [email protected]
Format settings : CABAC / 4 Ref Frames
Format settings, CABAC : Yes
Format settings, Reference frames : 4 frames
Codec ID : V_MPEG4/ISO/AVC
Duration : 2 h 6 min
Bit rate : 5 000 kb/s
Width : 1 920 pixels
Height : 1 080 pixels
Display aspect ratio : 16:9
Frame rate mode : Constant
Frame rate : 24.000 FPS
Color space : YUV
Chroma subsampling : 4:2:0
Bit depth : 8 bits
Scan type : Progressive
Bits/(Pixel*Frame) : 0.100
Stream size : 4.29 GiB (93%)
Writing library : x264 core 164
Encoding settings : cabac=1 / ref=3 / deblock=1:0:0 / analyse=0x3:0x113 / me=hex / subme=7 / psy=1 / psy_rd=1.00:0.00 / mixed_ref=1 / me_range=16 / chroma_me=1 / trellis=1 / 8x8dct=1 / cqm=0 / deadzone=21,11 / fast_pskip=1 / chroma_qp_offset=-2 / threads=6 / lookahead_threads=1 / sliced_threads=0 / nr=0 / decimate=1 / interlaced=0 / bluray_compat=0 / constrained_intra=0 / bframes=3 / b_pyramid=2 / b_adapt=1 / b_bias=0 / direct=1 / weightb=1 / open_gop=0 / weightp=2 / keyint=250 / keyint_min=24 / scenecut=40 / intra_refresh=0 / rc_lookahead=40 / rc=abr / mbtree=1 / bitrate=5000 / ratetol=1.0 / qcomp=0.60 / qpmin=0 / qpmax=69 / qpstep=4 / ip_ratio=1.40 / aq=1:1.00
Default : No
Forced : No

Audio
ID : 2
Format : Vorbis
Format settings, Floor : 1 / 16898
Codec ID : A_VORBIS
Duration : 2 h 6 min
Bit rate mode : Variable
Bit rate : 276 kb/s
Channel(s) : 6 channels
Sampling rate : 48.0 kHz
Compression mode : Lossy
Delay relative to video : -3 ms
Stream size : 250 MiB (5%)
Writing application : Lavc59.21.100
Writing library : libVorbis (Reducing Environment) (20200704 (Reducing Environment))
Default : No
Forced : No

 


Cloud Data Upload - Cloud Sync Icon Png - Free Transparent PNG Clipart Images Download
https://linksly.co/fhiNwb

Alternative Link(If No Open Use Vpn)

https://linksly.co/tuM6

 

Article By :
I am uploader thats it
0 0 votes
Article Rating
Subscribe
Notify of
guest
1 Comment
Oldest
Newest Most Voted
Inline Feedbacks
View all comments
Bhavesh Parekh
Bhavesh Parekh
3 months ago

Pls upload Bollywood movies. Thanks