Nobody.2021.1080p.10bit.BluRay.[Org.DDP5.1-Hindi+DDP7.1-English].ESub.HEVC | The.PunisheR | 5.55GB |

Nobody.2021.1080p.10bit.BluRay.[Org.DDP5.1-Hindi+DDP7.1-English].ESub.HEVC | The.PunisheR | 5.55GB |

General
Unique ID : 315100128186813331465886579512711753600 (0xED0E13C5B511CB083E8687295AD6AF80)
Complete name : Nobody.2021.1080p.10bit.BluRay.[Org.DDP5.1-Hindi+DDP7.1-English].ESub.HEVC-The.PunisheR.mkv
Format : Matroska
Format version : Version 4
File size : 3.82 GiB
Duration : 1 h 31 min
Overall bit rate : 5 961 kb/s
Movie name : The.PunisheR
Encoded date : UTC 2022-03-09 07:15:04
Writing application : mkvmerge v63.0.0 ('Everything') 32-bit
Writing library : libebml v1.4.2 + libmatroska v1.6.4

Video
ID : 1
Format : HEVC
Format/Info : High Efficiency Video Coding
Format profile : Main [email protected]@Main
Codec ID : V_MPEGH/ISO/HEVC
Duration : 1 h 31 min
Bit rate : 4 541 kb/s
Width : 1 920 pixels
Height : 804 pixels
Display aspect ratio : 2.40:1
Frame rate mode : Constant
Frame rate : 23.976 (24000/1001) FPS
Color space : YUV
Chroma subsampling : 4:2:0 (Type 0)
Bit depth : 10 bits
Bits/(Pixel*Frame) : 0.123
Stream size : 2.91 GiB (76%)
Title : 1080p / 10bit / DS4K / BluRay / Q16 / HEVC ~ The.PunisheR
Default : Yes
Forced : Yes
Color range : Limited
Color primaries : BT.709
Transfer characteristics : BT.709
Matrix coefficients : BT.709

Audio #1
ID : 2
Format : E-AC-3
Format/Info : Enhanced AC-3
Commercial name : Dolby Digital Plus
Codec ID : A_EAC3
Duration : 1 h 31 min
Bit rate mode : Constant
Bit rate : 640 kb/s
Channel(s) : 6 channels
Channel layout : L R C LFE Ls Rs
Sampling rate : 48.0 kHz
Frame rate : 31.250 FPS (1536 SPF)
Compression mode : Lossy
Stream size : 420 MiB (11%)
Title : Org. AMZN / DD+5.1 / 640kbps / 48kHz ~ The.PunisheR
Language : Hindi
Service kind : Complete Main
Default : Yes
Forced : No

Audio #2
ID : 3
Format : E-AC-3
Format/Info : Enhanced AC-3
Commercial name : Dolby Digital Plus
Format settings : Dolby Surround EX
Codec ID : A_EAC3
Duration : 1 h 31 min
Bit rate mode : Constant
Bit rate : 768 kb/s
Channel(s) : 8 channels
Channel layout : L R C LFE Ls Rs Lb Rb
Sampling rate : 48.0 kHz
Frame rate : 31.250 FPS (1536 SPF)
Compression mode : Lossy
Stream size : 504 MiB (13%)
Title : DD+7.1 / 768kbps / 48kHz (Core: DD+5.1 / 430kbps / 48kHz) ~ The.PunisheR
Language : English
Service kind : Complete Main
Default : No
Forced : No

Text
ID : 4
ID in the original source medium : 4768 (0x12A0)
Format : PGS
Muxing mode : zlib
Codec ID : S_HDMV/PGS
Codec ID/Info : Picture based subtitle format used on BDs/HD-DVDs
Duration : 1 h 28 min
Bit rate : 29.9 kb/s
Count of elements : 2284
Stream size : 18.9 MiB (0%)
Title : English - BD - PGS
Language : English
Default : No
Forced : No
Original source medium : Blu-ray

Menu
00:00:00.000 : :Chapter 1
00:09:01.541 : :Chapter 2
00:15:02.902 : :Chapter 3
00:19:18.491 : :Chapter 4
00:24:56.495 : :Chapter 5
00:35:37.469 : :Chapter 6
00:40:01.399 : :Chapter 7
00:43:43.287 : :Chapter 8
00:47:29.513 : :Chapter 9
00:50:56.387 : :Chapter 10
00:54:46.950 : :Chapter 11
00:57:32.115 : :Chapter 12
01:04:16.853 : :Chapter 13
01:06:55.011 : :Chapter 14
01:09:00.136 : :Chapter 15
01:13:20.730 : :Chapter 16
01:15:26.522 : :Chapter 17
01:21:05.527 : :Chapter 18
01:24:06.708 : :Chapter 19
01:26:17.172 : :Chapter 20

Nobody.2021.1080p.10bit.BluRay.[Org.DDP5.1-Hindi+DDP7.1-English].ESub.HEVC-The.PunisheR.mkv

Other Site Encodes Release  : https://1337x.to/user/Sava/

Article By :
Encoder
0 0 votes
Article Rating
Subscribe
Notify of
guest
0 Comments
Inline Feedbacks
View all comments