Nope.2022.IMAX.1080p.10bit.BluRay.[Org.DDP5.1-Hindi+DDP7.1-English].ESub.HEVC-The.PunisheR | 4.96 GB |

Nope.2022.IMAX.1080p.10bit.BluRay.[Org.DDP5.1-Hindi+DDP7.1-English].ESub.HEVC-The.PunisheR – 4.96 GB

Link 1 : https://new1.gdtot.cfd/file/21320374567

MediaInfos:
General
Unique ID : 135986235978403011596010497916427509584 (0x664DFF136263F94BC2FF8C4E6C3B1F50)
Complete name : Nope.2022.IMAX.1080p.10bit.BluRay.[Org.DDP5.1-Hindi+DDP7.1-English].ESub.HEVC-The.PunisheR.mkv
Format : Matroska
Format version : Version 4
File size : 4.96 GiB
Duration : 2 h 10 min
Overall bit rate : 5 432 kb/s
Movie name : The.PunisheR
Encoded date : UTC 2022-10-25 04:18:10
Writing application : mkvmerge v71.1.0 ('Fortitude') 64-bit
Writing library : libebml v1.4.4 + libmatroska v1.7.1
Attachments : Encoded-By-The-PunisheR.jpg

Video
ID : 1
Format : HEVC
Format/Info : High Efficiency Video Coding
Format profile : Main [email protected]@High
Codec ID : V_MPEGH/ISO/HEVC
Duration : 2 h 10 min
Bit rate : 4 033 kb/s
Width : 1 920 pixels
Height : 1 080 pixels
Display aspect ratio : 16:9
Frame rate mode : Constant
Frame rate : 23.976 (24000/1001) FPS
Color space : YUV
Chroma subsampling : 4:2:0 (Type 0)
Bit depth : 10 bits
Bits/(Pixel*Frame) : 0.081
Stream size : 3.68 GiB (74%)
Title : 1080p / 10bit / BluRay / Q14.5 / HPL / HEVC _ The.PunisheR
Default : Yes
Forced : No
Color range : Limited
Color primaries : BT.709
Transfer characteristics : BT.709
Matrix coefficients : BT.709

Audio #1
ID : 2
Format : E-AC-3
Format/Info : Enhanced AC-3
Commercial name : Dolby Digital Plus
Codec ID : A_EAC3
Duration : 2 h 10 min
Bit rate mode : Constant
Bit rate : 640 kb/s
Channel(s) : 6 channels
Channel layout : L R C LFE Ls Rs
Sampling rate : 48.0 kHz
Frame rate : 31.250 FPS (1536 SPF)
Compression mode : Lossy
Stream size : 599 MiB (12%)
Title : Org. Amz / DD+5.1 / 640kbps / 48kHz ~ The.PunisheR
Language : Hindi
Service kind : Complete Main
Default : Yes
Forced : Yes

Audio #2
ID : 3
Format : E-AC-3
Format/Info : Enhanced AC-3
Commercial name : Dolby Digital Plus
Format settings : Dolby Surround EX
Codec ID : A_EAC3
Duration : 2 h 10 min
Bit rate mode : Constant
Bit rate : 768 kb/s
Channel(s) : 8 channels
Channel layout : L R C LFE Ls Rs Lb Rb
Sampling rate : 48.0 kHz
Frame rate : 31.250 FPS (1536 SPF)
Compression mode : Lossy
Stream size : 717 MiB (14%)
Title : DD+7.1 / 768kbps / 48kHz (Core: DD+5.1 / 430kbps / 48kHz) ~ The.PunisheR
Language : English
Service kind : Complete Main
Default : No
Forced : No

Text #1
ID : 4
Format : UTF-8
Codec ID : S_TEXT/UTF8
Codec ID/Info : UTF-8 Plain Text
Duration : 2 h 2 min
Bit rate : 44 b/s
Frame rate : 0.186 FPS
Count of elements : 1363
Stream size : 40.1 KiB (0%)
Title : English - SRT
Language : English
Default : No
Forced : No

Text #2
ID : 5
Format : UTF-8
Codec ID : S_TEXT/UTF8
Codec ID/Info : UTF-8 Plain Text
Duration : 2 h 3 min
Bit rate : 59 b/s
Frame rate : 0.252 FPS
Count of elements : 1862
Stream size : 54.0 KiB (0%)
Title : English - SRT {SDH}
Language : English
Default : No
Forced : No

Menu
00:00:00.000 : en:Chapter 01
00:08:10.490 : en:Chapter 02
00:14:54.393 : en:Chapter 03
00:21:47.097 : en:Chapter 04
00:25:31.613 : en:Chapter 05
00:30:58.523 : en:Chapter 06
00:39:59.814 : en:Chapter 07
00:43:54.340 : en:Chapter 08
00:51:44.226 : en:Chapter 09
00:57:35.743 : en:Chapter 10
01:04:23.568 : en:Chapter 11
01:11:43.507 : en:Chapter 12
01:22:42.040 : en:Chapter 13
01:29:20.563 : en:Chapter 14
01:35:22.133 : en:Chapter 15
01:39:26.961 : en:Chapter 16
01:47:48.336 : en:Chapter 17
01:52:32.036 : en:Chapter 18
01:57:17.572 : en:Chapter 19
02:03:43.999 : en:Chapter 20

Other Site Encodes Release  : https://1337x.to/user/Sava/

Article By :
Encoder
5 1 vote
Article Rating
Subscribe
Notify of
guest
0 Comments
Inline Feedbacks
View all comments