Ozark Comple All Seasons 1-4 1080p.NF.WEB-DL.HIN-ENG.DD+5.1.x264-Telly 66GB

Ozark : Complete Series Seasons 1-3 (DVD Box Set, 9-Disc ) - Walmart.com

Qnap - [ MediaInfo ] [ HD Station ] Get information on your media files | Forum des NAS : Synology, Qnap, Asustor...

Complete name: Ozark.S04E01.The.Beginning.of.the.End.1080p.10bit.WEBRip.6CH.x265.HEVC-PSA.mkv
Format : Matroska
Format version : Version 4
File size : 633 MiB
Duration : 1 h 2 min
Overall bit rate : 1 423 kb/s
Movie name : PSArips.com | Ozark.S04E01.The.Beginning.of.the.End.1080p.10bit.WEBRip.6CH.x265.HEVC-PSA
Writing application : mkvmerge v64.0.0 (‘Willows’) 64-bit
Writing library : libebml v1.4.2 + libmatroska v1.6.4Video
ID : 1
Format : HEVC
Format/Info : High Efficiency Video Coding
Format profile : Main [email protected]@Main
Codec ID : V_MPEGH/ISO/HEVC
Duration : 1 h 2 min
Bit rate : 1 220 kb/s
Width : 1 920 pixels
Height : 872 pixels
Display aspect ratio : 2.2:1
Frame rate mode : Constant
Frame rate : 23.976 (24000/1001) FPS
Color space : YUV
Chroma subsampling : 4:2:0
Bit depth : 10 bits
Bits/(Pixel*Frame) : 0.030
Stream size : 543 MiB (86%)
Default : Yes
Forced : Audio
ID : 2
Format : AAC LC SBR
Format/Info : Advanced Audio Codec Low Complexity with Spectral Band Replication
Commercial name : HE-AAC
Format settings : Explicit
Codec ID : A_AAC-2
Duration : 1 h 2 min
Bit rate : 197 kb/s
Channel(s) : 6 channels
Channel layout : C L R Ls Rs LFE
Sampling rate : 48.0 kHz
Frame rate : 23.438 FPS (2048 SPF)
Compression mode : Lossy
Delay relative to video : 23 ms
Stream size : 87.6 MiB (14%)
Language : English
Default : Yes
Forced : NText #1
ID : 3
Format : UTF-8
Codec ID : S_TEXT/UTF8
Codec ID/Info : UTF-8 Plain Text
Duration : 58 min 24 s
Bit rate : 63 b/s
Count of elements : 793
Stream size : 27.0 KiB (0%)
Title : English [SDH]
Language : English
Default : Yes
Forced : No

HD Website Screenshot API | ScreenshotAPI.net
vlcsnap-2022-08-06-10h21m35s451.png
vlcsnap-2022-08-06-10h21m30s970.pngvlcsnap-2022-08-06-10h21m15s294vlcsnap-2022-08-06-10h21m07s053vlcsnap-2022-08-06-10h21m00s421
File:U (micro) Torrent logo.svg - Wikimedia Commons
Season 1

Season 2

Season 3 

Season 4

Click On Season 1,2,3,4 For Download Torrent

Article By :
I am uploader thats it
0 0 votes
Article Rating
Subscribe
Notify of
guest
0 Comments
Inline Feedbacks
View all comments