Padmaavat 2018 1080p 10bit BluRay DD+7.1 ESub HEVC-The PunisheR | 5.55 GB |

Padmaavat.2018.1080p.10bit.BluRay.DD+7.1.ESub.HEVC-The.PunisheR | 5.55 GB |

General
Unique ID : 243941877251796358163588976541503766659 (0xB7857F21C33C66196CD3682B7DCAC083)
Complete name : Padmaavat.2018.1080p.10bit.BluRay.DD+7.1.ESub.HEVC-The.PunisheR.mkv
Format : Matroska
Format version : Version 4
File size : 5.55 GiB
Duration : 2 h 43 min
Overall bit rate : 4 863 kb/s
Movie name : The.PunisheR
Encoded date : UTC 2022-01-05 10:44:47
Writing application : mkvmerge v61.0.0 ('So') 64-bit
Writing library : libebml v1.4.2 + libmatroska v1.6.4

Video
ID : 1
Format : HEVC
Format/Info : High Efficiency Video Coding
Format profile : Main [email protected]@Main
Codec ID : V_MPEGH/ISO/HEVC
Duration : 2 h 43 min
Bit rate : 4 084 kb/s
Width : 1 920 pixels
Height : 804 pixels
Display aspect ratio : 2.40:1
Frame rate mode : Constant
Frame rate : 24.000 FPS
Color space : YUV
Chroma subsampling : 4:2:0
Bit depth : 10 bits
Bits/(Pixel*Frame) : 0.110
Stream size : 4.66 GiB (84%)
Title : 1080p / 10bit / BluRay / Q17 / HEVC ~ The.PunisheR
Default : Yes
Forced : No
Color range : Limited
Color primaries : BT.709
Transfer characteristics : BT.709
Matrix coefficients : BT.709

Audio
ID : 2
Format : E-AC-3
Format/Info : Enhanced AC-3
Commercial name : Dolby Digital Plus
Format settings : Dolby Surround EX
Codec ID : A_EAC3
Duration : 2 h 43 min
Bit rate mode : Constant
Bit rate : 768 kb/s
Channel(s) : 8 channels
Channel layout : L R C LFE Ls Rs Lb Rb
Sampling rate : 48.0 kHz
Frame rate : 31.250 FPS (1536 SPF)
Compression mode : Lossy
Stream size : 898 MiB (16%)
Title : DD+7.1 / 768kbps / 48kHz (Core: DD+5.1 / 430kbps / 48kHz) ~ The.PunisheR
Language : Hindi
Service kind : Complete Main
Default : Yes
Forced : No

Text
ID : 3
Format : PGS
Muxing mode : zlib
Codec ID : S_HDMV/PGS
Codec ID/Info : Picture based subtitle format used on BDs/HD-DVDs
Duration : 2 h 32 min
Bit rate : 22.2 kb/s
Count of elements : 2506
Stream size : 24.3 MiB (0%)
Title : English-PGS
Language : English
Default : Yes
Forced : No

Menu
00:00:00.000 : CC And Credits
00:05:44.000 : Alaudin Brings Gift For Mehrunisa
00:11:06.833 : Love At First Sight
00:19:30.208 : Rani Padmavati In Chittor
00:21:03.958 : Jalaludin Khilji As Sultan-E-Hind
00:25:57.375 : Rajguru Raghav Chetan
00:27:54.250 : Ghoomar...
00:32:30.167 : Raghav Chetan Gets Punished
00:37:36.750 : Jalaludin Gets Assassinated
00:46:59.292 : Alaudin Brain-Washed
00:50:53.708 : Alaudin Attacks Chittor
01:01:10.375 : Binte Dil...
01:11:04.750 : Holi...
01:13:42.625 : Sultan's Message To Ratan Singh
01:18:44.625 : Alaudin Khilji Meets Ratan Singh
01:29:09.042 : Ratan Singh Betrayed By Alauddin
01:45:50.292 : Khalibali...
01:52:03.000 : Mehrunisa Welcomes Rani Padmavati
01:56:03.000 : Maharawal Ratan Singh's Escape
02:15:41.292 : Ek Dil Ek Jaan...
02:20:55.375 : Alaudin Fights With Ratan Singh
02:24:45.083 : Padmavati Prepares For Johar

Google Drive Link  : https://new.gdtot.xyz/file/11923885815

Other Site Encodes Release  : https://1337x.to/user/Sava/

Article By :
Encoder
0 0 votes
Article Rating
Subscribe
Notify of
guest
1 Comment
Oldest
Newest Most Voted
Inline Feedbacks
View all comments
DB9
DB9
Admin
3 months ago

wah bhura posting favi gyu…hve post no dhaglo//