Peaky-Blinders-Season-1-6 Completed S01-1080p-x264-Phun-Psyz 49GB

Peaky Blinders Season 1 (2015) R1 DVD Cover - DVDcover.Com

Improve your Audio Library with MediaInfo - FileHippo News

Complete name : Peaky Blinders S01E01 Episode 1.mp4
Format : MPEG-4
Format profile : Base Media / Version 2
Codec ID : mp42 (isom/iso2/avc1/mp41)
File size : 1 005 MiB
Duration : 56 min 59 s
Overall bit rate mode : Variable
Overall bit rate : 2 467 kb/s
Encoded date : UTC 2018-12-07 09:31:03
Tagged date : UTC 2018-12-07 09:31:03

Video
ID : 1
Format : AVC
Format/Info : Advanced Video Codec
Format profile : [email protected]
Format settings : CABAC / 1 Ref Frames
Format settings, CABAC : Yes
Format settings, Reference frames : 1 frame
Codec ID : avc1
Codec ID/Info : Advanced Video Coding
Duration : 56 min 59 s
Bit rate : 2 302 kb/s
Width : 1 920 pixels
Height : 1 040 pixels
Display aspect ratio : 1.85:1
Frame rate mode : Constant
Frame rate : 25.000 FPS
Color space : YUV
Chroma subsampling : 4:2:0
Bit depth : 8 bits
Scan type : Progressive
Bits/(Pixel*Frame) : 0.046
Stream size : 938 MiB (93%)
Writing library : x264 core 155 r2901 7d0ff22
Encoding settings : cabac=1 / ref=1 / deblock=1:4:4 / analyse=0x3:0x133 / me=umh / subme=11 / psy=0 / mixed_ref=0 / me_range=32 / chroma_me=1 / trellis=2 / 8x8dct=1 / cqm=0 / deadzone=21,11 / fast_pskip=1 / chroma_qp_offset=-8 / threads=48 / lookahead_threads=4 / sliced_threads=0 / nr=0 / decimate=1 / interlaced=0 / bluray_compat=0 / constrained_intra=0 / bframes=0 / weightp=2 / keyint=250 / keyint_min=25 / scenecut=100 / intra_refresh=0 / rc_lookahead=8 / rc=crf / mbtree=1 / crf=24.2 / qcomp=0.60 / qpmin=0 / qpmax=69 / qpstep=4 / ip_ratio=1.20 / aq=3:1.20
Encoded date : UTC 2018-12-07 09:31:03
Tagged date : UTC 2018-12-07 09:31:03
Color range : Limited
Color primaries : BT.709
Transfer characteristics : BT.709
Matrix coefficients : BT.709
Menus : 3
Codec configuration box : avcC

Audio
ID : 2
Format : AAC LC
Format/Info : Advanced Audio Codec Low Complexity
Codec ID : mp4a-40-2
Duration : 56 min 58 s
Bit rate mode : Variable
Bit rate : 160 kb/s
Channel(s) : 2 channels
Channel layout : L R
Sampling rate : 48.0 kHz
Frame rate : 46.875 FPS (1024 SPF)
Compression mode : Lossy
Stream size : 65.4 MiB (7%)
Title : Stereo / Stereo
Language : English
Default : Yes
Alternate group : 1
Encoded date : UTC 2018-12-07 09:31:03
Tagged date : UTC 2018-12-07 09:31:03
Menus : 3

Menu
ID : 3
Format : Timed Text
Codec ID : text
Duration : 56 min 59 s
Language : English
Encoded date : UTC 2018-12-07 09:31:03
Tagged date : UTC 2018-12-07 09:31:03
Bit rate mode : CBR
Menu For : 1,2
00:00:00.000 : 00:00:00.000
00:09:46.600 : 00:09:46.600
00:24:02.680 : 00:24:02.680
00:34:29.960 : 00:34:29.920
00:46:55.640 : 00:46:55.640
Bit rate mode : Constant

HD Website Screenshot API | ScreenshotAPI.net

 


Direct Download Link Button Software Cracking, PNG, 3043x875px, Button, Android, Area, Banner, Blue Download Free

Season 1
https://tei.ai/Xj3XIXfYB

Season 2
https://tei.ai/89pcspC

Season 3
https://tei.ai/0LlmO

Season 4
https://tei.ai/BZ47xw

Season 5
https://tei.ai/HE2Gqn

Season 6
https://tei.ai/GP5v8L

Article By :
I am uploader thats it
5 1 vote
Article Rating
Subscribe
Notify of
guest
1 Comment
Oldest
Newest Most Voted
Inline Feedbacks
View all comments
Hari Kane
Hari Kane
3 months ago

Please upload
Naan mahaan alla 2010 in 1080p bluray remux tamil