Pushpa-The.Rise.Part.01.2021.1080p.10Bit.DS4K.AMZN.WEBRip.[Org.DDP5.1-Hindi+DD+5.1-Telugu].ESub.HEVC-The.PunisheR | 6.04 GB |

Pushpa-The.Rise.Part.01.2021.1080p.10Bit.DS4K.AMZN.WEBRip.[Org.DDP5.1-Hindi+DD+5.1-Telugu].ESub.HEVC-The.PunisheR | 6.04 GB |

General
Unique ID : 103810592935219982333731951708265200739 (0x4E19316507D045AD8D218F6C25B73C63)
Complete name : Pushpa-The.Rise.Part.01.2021.1080p.10Bit.DS4K.AMZN.WEBRip.[Org.DDP5.1-Hindi+DD+5.1-Telugu].ESub.HEVC-The.PunisheR.mkv
Format : Matroska
Format version : Version 4
File size : 6.04 GiB
Duration : 2 h 55 min
Overall bit rate : 4 926 kb/s
Movie name : The.PunisheR
Encoded date : UTC 2022-01-14 03:03:20
Writing application : mkvmerge v50.0.0 ('Awakenings') 64-bit
Writing library : libebml v1.4.0 + libmatroska v1.6.2
Attachments : Encoded.By-The.PunisheR.jpg

Video
ID : 1
Format : HEVC
Format/Info : High Efficiency Video Coding
Format profile : Main [email protected]@Main
Codec ID : V_MPEGH/ISO/HEVC
Duration : 2 h 55 min
Bit rate : 3 643 kb/s
Width : 1 920 pixels
Height : 800 pixels
Display aspect ratio : 2.40:1
Frame rate mode : Constant
Frame rate : 24.000 FPS
Color space : YUV
Chroma subsampling : 4:2:0
Bit depth : 10 bits
Bits/(Pixel*Frame) : 0.099
Stream size : 4.47 GiB (74%)
Title : 1080p / 10bit / WebDL / Q15.5 / HEVC ~ The.PunisheR
Default : Yes
Forced : Yes
Color range : Limited
Color primaries : BT.709
Transfer characteristics : BT.709
Matrix coefficients : BT.709

Audio #1
ID : 2
Format : E-AC-3
Format/Info : Enhanced AC-3
Commercial name : Dolby Digital Plus
Codec ID : A_EAC3
Duration : 2 h 55 min
Bit rate mode : Constant
Bit rate : 640 kb/s
Channel(s) : 6 channels
Channel layout : L R C LFE Ls Rs
Sampling rate : 48.0 kHz
Frame rate : 31.250 FPS (1536 SPF)
Compression mode : Lossy
Stream size : 804 MiB (13%)
Title : Org. Amz / DD+5.1 / 640kbps / 48kHz ~ The.PunisheR
Language : Hindi
Service kind : Complete Main
Default : Yes
Forced : Yes

Audio #2
ID : 3
Format : E-AC-3
Format/Info : Enhanced AC-3
Commercial name : Dolby Digital Plus
Codec ID : A_EAC3
Duration : 2 h 55 min
Bit rate mode : Constant
Bit rate : 640 kb/s
Channel(s) : 6 channels
Channel layout : L R C LFE Ls Rs
Sampling rate : 48.0 kHz
Frame rate : 31.250 FPS (1536 SPF)
Compression mode : Lossy
Stream size : 804 MiB (13%)
Title : DD+5.1 / 640kbps / 48kHz ~ The.PunisheR
Language : Telugu
Service kind : Complete Main
Default : No
Forced : No

Text
ID : 4
Format : UTF-8
Codec ID : S_TEXT/UTF8
Codec ID/Info : UTF-8 Plain Text
Duration : 2 h 50 min
Bit rate : 66 b/s
Count of elements : 2138
Stream size : 83.5 KiB (0%)
Title : SRT
Language : English
Default : No
Forced : No

Menu
00:00:00.000 : en:Studio Logo
00:01:16.000 : en:Scene 2
00:07:26.000 : en:Title Sequence
00:07:32.000 : en:Scene 4
00:14:50.000 : en:Scene 5
00:20:15.000 : en:Scene 6
00:28:58.000 : en:Scene 7
00:33:04.000 : en:Scene 8
00:40:53.000 : en:Scene 9
00:47:46.000 : en:Scene 10
00:54:58.000 : en:Scene 11
00:59:14.000 : en:Scene 12
01:06:35.000 : en:Scene 13
01:12:47.000 : en:Scene 14
01:19:10.000 : en:Scene 15
01:28:08.000 : en:Scene 16
01:35:28.000 : en:Scene 17
01:42:56.000 : en:Scene 18
01:52:30.000 : en:Scene 19
01:59:33.000 : en:Scene 20
02:04:42.000 : en:Scene 21
02:04:44.000 : en:Scene 22
02:10:48.000 : en:Scene 23
02:16:42.000 : en:Scene 24
02:23:36.000 : en:Scene 25
02:28:59.000 : en:Scene 26
02:33:51.000 : en:Scene 27
02:41:23.000 : en:Scene 28
02:52:17.000 : en:End Credits

Google Drive Link  : https://new.gdtot.xyz/file/19461888834

Other Site Encodes Release  : https://1337x.to/user/Sava/

Article By :
Encoder
0 0 votes
Article Rating
Subscribe
Notify of
guest
2 Comments
Oldest
Newest Most Voted
Inline Feedbacks
View all comments
Chetan
Chetan
3 months ago

Thank you for this wonderful site and awesome uploads. Kindly upload The Mask animated series all episodes in hindi if possible.

DB9
DB9
Admin
Reply to  Chetan
3 months ago

sure will do..thnx for Appreciation.