Raazi.2018.Hindi.1080p.10bit.BluRay.DD+5.1.ESub.HEVC | The.PunisheR | 4.59 GB |

Raazi.2018.Hindi.1080p.10bit.BluRay.DD+5.1.ESub.HEVC | The.PunisheR | 4.59 GB |

General
Unique ID : 74464504397589638778541213454343349888 (0x3805578588DFD2097AB6D6FDAB742680)
Complete name : Raazi.2018.Hindi.1080p.10bit.BluRay.DD+5.1.ESub.HEVC-The.PunisheR.mkv
Format : Matroska
Format version : Version 4
File size : 4.59 GiB
Duration : 2 h 18 min
Overall bit rate : 4 738 kb/s
Movie name : The.PunisheR
Encoded date : UTC 2022-02-21 10:00:04
Writing application : mkvmerge v65.0.0 (‘Too Much’) 64-bit
Writing library : libebml v1.4.2 + libmatroska v1.6.4
Attachments : Encoded.By-The.PunisheR.jpg

Video
ID : 1
Format : HEVC
Format/Info : High Efficiency Video Coding
Format profile : Main [email protected]@Main
Codec ID : V_MPEGH/ISO/HEVC
Duration : 2 h 18 min
Bit rate : 4 082 kb/s
Width : 1 920 pixels
Height : 804 pixels
Display aspect ratio : 2.40:1
Frame rate mode : Constant
Frame rate : 24.000 FPS
Color space : YUV
Chroma subsampling : 4:2:0 (Type 0)
Bit depth : 10 bits
Bits/(Pixel*Frame) : 0.110
Stream size : 3.96 GiB (86%)
Title : 1080p / 10bit / Bluray / Q13 / HEVC ~ The.PunisheR
Default : Yes
Forced : Yes
Color range : Limited
Color primaries : BT.709
Transfer characteristics : BT.709
Matrix coefficients : BT.709

Audio
ID : 2
Format : E-AC-3
Format/Info : Enhanced AC-3
Commercial name : Dolby Digital Plus
Format settings : Dolby Surround EX
Codec ID : A_EAC3
Duration : 2 h 18 min
Bit rate mode : Constant
Bit rate : 640 kb/s
Channel(s) : 6 channels
Channel layout : L R C LFE Ls Rs
Sampling rate : 48.0 kHz
Frame rate : 31.250 FPS (1536 SPF)
Compression mode : Lossy
Stream size : 635 MiB (14%)
Title : DD+5.1 / 640kbps / 48kHz ~ The.PunisheR
Language : Hindi
Service kind : Complete Main
Default : Yes
Forced : Yes

Text
ID : 3
Format : PGS
Muxing mode : zlib
Codec ID : S_HDMV/PGS
Codec ID/Info : Picture based subtitle format used on BDs/HD-DVDs
Duration : 2 h 8 min
Bit rate : 23.5 kb/s
Count of elements : 2542
Stream size : 21.7 MiB (0%)
Title : English – BD – PGS
Language : English
Default : No
Forced : No

Menu
00:00:00.000 : en:She Is An Indian First
00:16:54.542 : en:Raazi
00:18:03.000 : en:Across The Threshold. Across The Border.
00:29:16.417 : en:Dilbaro
00:34:07.000 : en:The Bride. The Wife. The Spy.
00:39:37.750 : en:Raazi
00:57:43.000 : en:Ae Watan-(Female)
01:03:21.000 : en:The Leaking Roof Has Been Repaired
01:13:00.458 : en:The Cat Claws
01:35:42.083 : en:Cross Border Communication Shuts Down.
01:51:19.167 : en:Nothing Before The Nation
02:11:24.000 : en:Ae Watan-(Male)

Google Drive Link  : https://new.gdtot.xyz/file/4933120243

Other Site Encodes Release  : https://1337x.to/user/Sava/

Article By :
Encoder
0 0 votes
Article Rating
Subscribe
Notify of
guest
0 Comments
Inline Feedbacks
View all comments