Radhe.Shyam.2022.Hindi.1080p.10bit.DS4K.NF.WEBRip.DDP5.1.ESub.HEVC | The.PunisheR | 4.85 GB

Radhe.Shyam.2022.Hindi.1080p.10bit.DS4K.NF.WEBRip.DDP5.1.ESub.HEVC | The.PunisheR | 4.85 GB |

General
Unique ID : 53193660031396788012823519440685223835 (0x2804B9ECDEC44CEA2EC8A7CAB0DBCF9B)
Complete name : Radhe.Shyam.2022.Hindi.1080p.10bit.DS4K.NF.WEBRip.DDP5.1.ESub.HEVC-The.PunisheR.mkv
Format : Matroska
Format version : Version 4 / Version 2
File size : 4.85 GiB
Duration : 2 h 18 min
Overall bit rate : 4 998 kb/s
Movie name : The.PunisheR
Encoded date : UTC 2022-05-16 12:39:17
Writing application : mkvmerge v67.0.0 (‘Under Stars’) 64-bit
Writing library : libebml v1.4.2 + libmatroska v1.6.4
Attachments : Encoded-By-The-PunisheR.jpg

Video
ID : 1
Format : HEVC
Format/Info : High Efficiency Video Coding
Format profile : Main [email protected]@High
Codec ID : V_MPEGH/ISO/HEVC
Duration : 2 h 18 min
Bit rate : 4 356 kb/s
Width : 1 920 pixels
Height : 804 pixels
Display aspect ratio : 2.40:1
Frame rate mode : Constant
Frame rate : 24.000 FPS
Color space : YUV
Chroma subsampling : 4:2:0 (Type 0)
Bit depth : 10 bits
Bits/(Pixel*Frame) : 0.118
Stream size : 4.23 GiB (87%)
Title : 1080p / 10bit / DS4K / NF / WEBRip / Q16 / HPL / HEVC ~ The.PunisheR
Default : Yes
Forced : No
Color range : Limited
Color primaries : BT.709
Transfer characteristics : BT.709
Matrix coefficients : BT.709

Audio
ID : 2
Format : E-AC-3
Format/Info : Enhanced Audio Coding 3
Format settings, Endianness : Big
Codec ID : A_EAC3
Duration : 2 h 18 min
Bit rate mode : Constant
Bit rate : 640 kb/s
Channel(s) : 6 channels
Channel positions : Front: L C R, Side: L R, LFE
Sampling rate : 48.0 kHz
Frame rate : 187.500 FPS (256 SPF)
Compression mode : Lossy
Stream size : 636 MiB (13%)
Title : DD+5.1 / 640kbps / 48kHz ~ The.PunisheR
Language : Hindi
Service kind : Complete Main
Default : Yes
Forced : Yes

Text #1
ID : 3
Format : UTF-8
Codec ID : S_TEXT/UTF8
Codec ID/Info : UTF-8 Plain Text
Duration : 2 h 15 min
Bit rate : 40 b/s
Count of elements : 1338
Stream size : 39.9 KiB (0%)
Title : English-SRT
Language : English
Default : No
Forced : No

Text #2
ID : 4
Format : UTF-8
Codec ID : S_TEXT/UTF8
Codec ID/Info : UTF-8 Plain Text
Duration : 2 h 17 min
Bit rate : 102 b/s
Count of elements : 1392
Stream size : 103 KiB (0%)
Title : Hindi-SRT
Language : Hindi
Default : No
Forced : No

Text #3
ID : 5
Format : UTF-8
Codec ID : S_TEXT/UTF8
Codec ID/Info : UTF-8 Plain Text
Duration : 1 h 52 min
Bit rate : 0 b/s
Count of elements : 3
Stream size : 55.0 Bytes (0%)
Title : Hindi (Forced)
Language : Hindi
Default : No
Forced : Yes

Google Drive Link  : https://new.gdtot.xyz/file/5206309244

Other Site Encodes Release  : https://1337x.to/user/Sava/

Article By :
Encoder
0 0 votes
Article Rating
Subscribe
Notify of
guest
0 Comments
Inline Feedbacks
View all comments