Ramayan.1988.1080p.HS.WEB-DL.x264.AAC 2.0 – 48GB

Ramayan - Where to Watch Every Episode Streaming Online | Reelgood

Qnap - [ MediaInfo ] [ HD Station ] Get information on your media files | Forum des NAS : Synology, Qnap, Asustor...

Complete name : Hanuman Meets Sita ~DareDevil~.mp4
Format : MPEG-4
Format profile : Base Media
Codec ID : isom (isom/iso2/avc1/mp41)
File size : 385 MiB
Duration : 39 min 54 s
Overall bit rate : 1 349 kb/s
Writing application : Lavf58.42.100

Video
ID : 1
Format : AVC
Format/Info : Advanced Video Codec
Format profile : [email protected]
Format settings : CABAC / 4 Ref Frames
Format settings, CABAC : Yes
Format settings, Reference frames : 4 frames
Codec ID : avc1
Codec ID/Info : Advanced Video Coding
Duration : 39 min 54 s
Bit rate : 1 279 kb/s
Width : 1 920 pixels
Height : 1 080 pixels
Display aspect ratio : 16:9
Frame rate mode : Constant
Frame rate : 25.000 FPS
Color space : YUV
Chroma subsampling : 4:2:0
Bit depth : 8 bits
Scan type : Progressive
Bits/(Pixel*Frame) : 0.025
Stream size : 365 MiB (95%)
Codec configuration box : avcC

Audio
ID : 2
Format : AAC LC
Format/Info : Advanced Audio Codec Low Complexity
Codec ID : mp4a-40-2
Duration : 39 min 54 s
Bit rate mode : Constant
Bit rate : 64.3 kb/s
Channel(s) : 2 channels
Channel layout : L R
Sampling rate : 48.0 kHz
Frame rate : 46.875 FPS (1024 SPF)
Compression mode : Lossy
Stream size : 18.3 MiB (5%)
Default : Yes
Alternate group : 1

HD Website Screenshot API | ScreenshotAPI.net

File:U (micro) Torrent logo.svg - Wikimedia Commons

Click Here For Download

Article By :
I am uploader thats it
0 0 votes
Article Rating
Subscribe
Notify of
guest
1 Comment
Oldest
Newest Most Voted
Inline Feedbacks
View all comments
DB9
DB9
Admin
1 month ago

Great Upload !! keep goin..

Last edited 1 month ago by DB9