Sardar.Udham.2021.1080p.10bit.DS4K.AMZN.WEBRip.DD+5.1.ESub.HEVC | The.PunisheR | 5.75GB |

Sardar.Udham.2021.1080p.10bit.DS4K.AMZN.WEBRip.DD+5.1.ESub.HEVC | The.PunisheR | 5.75GB |

General
Complete name : Sardar.Udham.2021.1080p.10bit.DS4K.AMZN.WEBRip.DD+5.1.ESub.HEVC-The.PunisheR.mkv
Format : Matroska
Format version : Version 4
File size : 5.75 GiB
Duration : 2 h 42 min
Overall bit rate : 5 058 kb/s
Movie name : The.PunisheR
Encoded date : UTC 2021-10-19 06:57:47
Writing application : mkvmerge v60.0.0 ('Are We Copies?') 64-bit
Writing library : libebml v1.4.2 + libmatroska v1.6.4

Video
ID : 1
Format : HEVC
Format/Info : High Efficiency Video Coding
Format profile : Main [email protected]@High
Codec ID : V_MPEGH/ISO/HEVC
Duration : 2 h 42 min
Bit rate : 4 415 kb/s
Width : 1 920 pixels
Height : 800 pixels
Display aspect ratio : 2.40:1
Frame rate mode : Constant
Frame rate : 24.000 FPS
Color space : YUV
Chroma subsampling : 4:2:0
Bit depth : 10 bits
Bits/(Pixel*Frame) : 0.120
Stream size : 5.02 GiB (87%)
Title : 1080p / AMZN / DS4K / 10bit / WEBRip / HEVC ~ The.PunisheR
Default : Yes
Forced : No
Color range : Limited
Color primaries : BT.709
Transfer characteristics : BT.709
Matrix coefficients : BT.709

Audio
ID : 2
Format : E-AC-3
Format/Info : Enhanced AC-3
Commercial name : Dolby Digital Plus
Codec ID : A_EAC3
Duration : 2 h 42 min
Bit rate mode : Constant
Bit rate : 640 kb/s
Channel(s) : 6 channels
Channel layout : L R C LFE Ls Rs
Sampling rate : 48.0 kHz
Frame rate : 31.250 FPS (1536 SPF)
Compression mode : Lossy
Stream size : 745 MiB (13%)
Title : DDP / AC-3 / 5.1 / 640kbps / 48kHz ~ The.PunisheR
Language : Hindi
Service kind : Complete Main
Default : No
Forced : No

Text
ID : 3
Format : UTF-8
Codec ID : S_TEXT/UTF8
Codec ID/Info : UTF-8 Plain Text
Duration : 2 h 32 min
Bit rate : 40 b/s
Count of elements : 1645
Stream size : 45.0 KiB (0%)
Title : English
Language : English
Default : No
Forced : No

Google Drive Link  : https://new.gdtot.xyz/file/6176745439

Other Site Encodes Release  : https://1337x.to/user/Sava/

Article By :
Encoder
0 0 votes
Article Rating
Subscribe
Notify of
guest
1 Comment
Oldest
Newest Most Voted
Inline Feedbacks
View all comments
AD wassan
AD wassan
3 months ago

Please upload Bollywood heart touching volumes 8 to 18 please 🙏