Sonu.Tane.Mara.Par.Bharoso.Nai.Ke.2022 | 1080p | 720p | SM.WEB-DL.AAC2.0.x264 | LOGiC | GUJRATI | 1.37GB | 2.63GB |

Sonu.Tane.Mara.Par.Bharoso.Nai.Ke.2022 | 1080p | 720p | SM.WEB-DL.AAC2.0.x264 | LOGiC | GUJRATI | 1.37GB | 2.63GB |
📂 Sonu.Tane.Mara.Par.Bharoso.Nai.Ke.2022.1080p.SM.WEB-DL.AAC2.0.x264~LOGiC.mkv – 2.63
📂 Sonu.Tane.Mara.Par.Bharoso.Nai.Ke.2022.720p.SM.WEB-DL.AAC2.0.x264~LOGiC.mkv – 1.37

General
Unique ID : 311884414219979643368960991369852732534 (0xEAA2C0D536E0F9F8E6C8FB72A6E9C476)
Complete name : Sonu.Tane.Mara.Par.Bharoso.Nai.Ke.2022.1080p.SM.WEB-DL.AAC2.0.x264~LOGiC.mkv
Format : Matroska
Format version : Version 4 / Version 2
File size : 2.63 GiB
Duration : 2 h 0 min
Overall bit rate : 3 130 kb/s
Movie name : LOGiC
Encoded date : UTC 2022-06-23 06:24:27
Writing application : mkvmerge v60.0.0 ('Are We Copies?') 64-bit
Writing library : libebml v1.4.2 + libmatroska v1.6.4

Video
ID : 2
Format : AVC
Format/Info : Advanced Video Codec
Format profile : [email protected]
Format settings, CABAC : Yes
Format settings, RefFrames : 4 frames
Codec ID : V_MPEG4/ISO/AVC
Duration : 2 h 0 min
Bit rate : 3 000 kb/s
Width : 1 920 pixels
Height : 1 080 pixels
Display aspect ratio : 16:9
Frame rate mode : Constant
Frame rate : 25.000 FPS
Color space : YUV
Chroma subsampling : 4:2:0
Bit depth : 8 bits
Scan type : Progressive
Bits/(Pixel*Frame) : 0.058
Stream size : 2.52 GiB (96%)
Title : 1080p / SM / WEB-DL ~ LOGiC
Writing library : x264 core 161 r3048 b86ae3c
Encoding settings : cabac=1 / ref=2 / deblock=1:-1:-1 / analyse=0x1:0x111 / me=esa / subme=9 / psy=1 / psy_rd=1.00:0.15 / mixed_ref=1 / me_range=16 / chroma_me=1 / trellis=1 / 8x8dct=0 / cqm=0 / deadzone=21,11 / fast_pskip=1 / chroma_qp_offset=-3 / threads=12 / lookahead_threads=1 / sliced_threads=0 / nr=0 / decimate=1 / interlaced=0 / bluray_compat=0 / constrained_intra=0 / bframes=4 / b_pyramid=2 / b_adapt=1 / b_bias=0 / direct=1 / weightb=1 / open_gop=0 / weightp=2 / keyint=125 / keyint_min=63 / scenecut=0 / intra_refresh=0 / rc_lookahead=40 / rc=2pass / mbtree=1 / bitrate=3000 / ratetol=1.0 / qcomp=0.60 / qpmin=0 / qpmax=69 / qpstep=4 / cplxblur=20.0 / qblur=0.5 / ip_ratio=1.40 / aq=1:1.00
Default : Yes
Forced : No
Color range : Limited
Color primaries : BT.709
Transfer characteristics : BT.709
Matrix coefficients : BT.709

Audio
ID : 1
Format : AAC
Format/Info : Advanced Audio Codec
Format profile : LC
Codec ID : A_AAC
Duration : 2 h 0 min
Bit rate : 128 kb/s
Channel(s) : 2 channels
Channel positions : Front: L R
Sampling rate : 48.0 kHz
Frame rate : 46.875 FPS (1024 SPF)
Compression mode : Lossy
Delay relative to video : -80 ms
Stream size : 110 MiB (4%)
Title : SM / AAC2.0 / 128kbps ~ LOGiC
Default : Yes
Forced : No

Text
ID : 3
Format : UTF-8
Codec ID : S_TEXT/UTF8
Codec ID/Info : UTF-8 Plain Text
Duration : 2 s 547 ms
Bit rate : 21 b/s
Count of elements : 1
Stream size : 7.00 Bytes (0%)
Default : Yes
Forced : No

Other Site Encodes Release  : https://1337x.to/user/Sava/

Article By :
Encoder
5 1 vote
Article Rating
Subscribe
Notify of
guest
1 Comment
Oldest
Newest Most Voted
Inline Feedbacks
View all comments
Bhavesh Parekh
Bhavesh Parekh
3 months ago

Great share buddy keep it up
Pls upload more gurati movies.
& hindi