Spider-Man No Way Home 2021 EC 1080p 10bit DS4K MA WEBRip [Org DDP5.1-Hindi+DDP5.1-English] ESub HEVC | The.PunisheR | 5.40GB | Extended Edition

Spider-Man.No.Way.Home.2021.EC.1080p.10bit.DS4K.MA.WEBRip.[Org.DDP5.1-Hindi+DDP5.1-English].ESub.HEVC-The.PunisheR.mkv – 5.39 GB

 

Link 1 : https://new1.gdtot.cfd/file/5784281488

MediaInfos:
General
Unique ID : 20229507933825188396539181886812876472 (0xF380FBF0DBBDA425FF99E2C4DFE6EB8)
Complete name : Spider-Man.No.Way.Home.2021.EC.1080p.10bit.DS4K.MA.WEBRip.[Org.DDP5.1-Hindi+DDP5.1-English].ESub.HEVC-The.PunisheR.mkv
Format : Matroska
Format version : Version 4
File size : 5.39 GiB
Duration : 2 h 36 min
Overall bit rate : 4 914 kb/s
Movie name : The.PunisheR
Encoded date : UTC 2022-11-04 07:20:27
Writing application : mkvmerge v71.1.0 ('Fortitude') 64-bit
Writing library : libebml v1.4.4 + libmatroska v1.7.1
Attachments : Encoded-By-The-PunisheR.jpg

Video
ID : 1
Format : HEVC
Format/Info : High Efficiency Video Coding
Format profile : Main [email protected]@High
Codec ID : V_MPEGH/ISO/HEVC
Duration : 2 h 36 min
Bit rate : 3 631 kb/s
Width : 1 920 pixels
Height : 804 pixels
Display aspect ratio : 2.40:1
Frame rate mode : Constant
Frame rate : 23.976 (24000/1001) FPS
Color space : YUV
Chroma subsampling : 4:2:0 (Type 2)
Bit depth : 10 bits
Bits/(Pixel*Frame) : 0.098
Stream size : 3.98 GiB (74%)
Title : 1080p / 10bit / DS4K / MA / WEBRip / Q14.5 / HPL / HEVC ~ The.PunisheR
Default : Yes
Forced : No
Color range : Limited
Color primaries : BT.709
Transfer characteristics : BT.709
Matrix coefficients : BT.709

Audio #1
ID : 2
Format : E-AC-3
Format/Info : Enhanced AC-3
Commercial name : Dolby Digital Plus
Codec ID : A_EAC3
Duration : 2 h 36 min
Bit rate mode : Constant
Bit rate : 640 kb/s
Channel(s) : 6 channels
Channel layout : L R C LFE Ls Rs
Sampling rate : 48.0 kHz
Frame rate : 31.250 FPS (1536 SPF)
Compression mode : Lossy
Delay relative to video : 250 ms
Stream size : 718 MiB (13%)
Title : Org. AMZN / DD+5.1 / 640kbps / 48kHz ~ The.PunisheR
Language : Hindi
Service kind : Complete Main
Default : Yes
Forced : Yes

Audio #2
ID : 3
Format : E-AC-3
Format/Info : Enhanced AC-3
Commercial name : Dolby Digital Plus
Codec ID : A_EAC3
Duration : 2 h 36 min
Bit rate mode : Constant
Bit rate : 640 kb/s
Channel(s) : 6 channels
Channel layout : L R C LFE Ls Rs
Sampling rate : 48.0 kHz
Frame rate : 31.250 FPS (1536 SPF)
Compression mode : Lossy
Stream size : 718 MiB (13%)
Title : DD+5.1 / 640kbps / 48kHz ~ The.PunisheR
Language : English
Service kind : Complete Main
Default : No
Forced : No

Text
ID : 4
Format : UTF-8
Codec ID : S_TEXT/UTF8
Codec ID/Info : UTF-8 Plain Text
Duration : 2 h 36 min
Bit rate : 70 b/s
Frame rate : 0.255 FPS
Count of elements : 2399
Stream size : 80.7 KiB (0%)
Title : English - SRT {SDH}
Language : English
Default : No
Forced : No

Menu
00:00:00.000 : :1
00:09:31.000 : :2
00:20:24.000 : :3
00:32:30.000 : :4
00:40:31.000 : :5
00:49:26.000 : :6
00:59:59.000 : :7
01:10:16.000 : :8
01:18:28.000 : :9
01:29:55.000 : :10
01:42:03.000 : :11
01:52:25.000 : :12
02:00:32.000 : :13
02:10:14.000 : :14
02:20:39.000 : :15
02:26:50.000 : :16

Other Site Encodes Release  : https://1337x.to/user/Sava/

Article By :
Encoder
0 0 votes
Article Rating
Subscribe
Notify of
guest
0 Comments
Inline Feedbacks
View all comments