The Boys S01 1080p 10bit BluRay Hindi-English DDP5.1 ESub HEVC – The.PunisheR

📂The.Boys.S01.1080p.10bit.BluRay.Hindi-English.DDP5.1.ESub.HEVC-The.PunisheR
▶️ The.Boys.S01E01.The.Name.Of.The.Game.1080p.10bit.BluRay.Hindi-English.DDP5.1.ESub.HEVC-The.PunisheR.mkv – 2.6GB
▶️ The.Boys.S01E02.Cherry.1080p.10bit.BluRay.Hindi-English.DDP5.1.ESub.HEVC-The.PunisheR.mkv – 2.21 GB
▶️ The.Boys.S01E03.Get.Some.1080p.10bit.BluRay.Hindi-English.DDP5.1.ESub.HEVC-The.PunisheR.mkv – 2.11 GB
▶️ The.Boys.S01E04.The.Female.Of.The.Species.1080p.10bit.BluRay.Hindi-English.DDP5.1.ESub.HEVC-The.PunisheR.mkv – 2.17 GB
▶️ The.Boys.S01E05.Good.For.The.Soul.1080p.10bit.BluRay.Hindi-English.DDP5.1.ESub.HEVC-The.PunisheR.mkv – 2.73 GB
▶️ The.Boys.S01E06.The.Innocents.1080p.10bit.BluRay.Hindi-English.DDP5.1.ESub.HEVC-The.PunisheR.mkv – 2.25 GB
▶️ The.Boys.S01E07.The.Self.Preservation.Society.1080p.10bit.BluRay.Hindi-English.DDP5.1.ESub.HEVC-The.PunisheR.mkv – 2.12 GB
▶️ The.Boys.S01E08.You.Found.Me.1080p.10bit.BluRay.Hindi-English.DDP5.1.ESub.HEVC-The.PunisheR.mkv – 2.3 GB
The.Boys.S01.1080p.10bit.BluRay.Hindi-English.DDP5.1.ESub.HEVC-The.PunisheR.tar – 18.49

General
Unique ID : 133996553034890313348112356835016669833 (0x64CECC21FA42D433B2683E8BBED17A89)
Complete name : The.Boys.S01E01.The.Name.Of.The.Game.1080p.10bit.BluRay.Hindi-English.DDP5.1.ESub.HEVC-The.PunisheR.mkv
Format : Matroska
Format version : Version 4
File size : 2.60 GiB
Duration : 59 min 58 s
Overall bit rate : 6 215 kb/s
Movie name : The.PunisheR
Encoded date : UTC 2021-07-11 09:01:00
Writing application : mkvmerge v57.0.0 ('Till The End') 64-bit
Writing library : libebml v1.4.2 + libmatroska v1.6.4
Attachments : Encoded.By-The.PunisheR.jpg

Video
ID : 1
Format : HEVC
Format/Info : High Efficiency Video Coding
Format profile : Main [email protected]@Main
Codec ID : V_MPEGH/ISO/HEVC
Duration : 59 min 58 s
Bit rate : 4 897 kb/s
Width : 1 920 pixels
Height : 816 pixels
Display aspect ratio : 2.35:1
Frame rate mode : Constant
Frame rate : 23.976 (24000/1001) FPS
Color space : YUV
Chroma subsampling : 4:2:0
Bit depth : 10 bits
Bits/(Pixel*Frame) : 0.130
Stream size : 2.05 GiB (79%)
Title : 1080p / 10bit / BluRay / HEVC ~ The.PunisheR
Language : English
Default : Yes
Forced : No
Color range : Limited
Color primaries : BT.709
Transfer characteristics : BT.709
Matrix coefficients : BT.709

Audio #1
ID : 2
Format : E-AC-3
Format/Info : Enhanced AC-3
Commercial name : Dolby Digital Plus
Codec ID : A_EAC3
Duration : 59 min 56 s
Bit rate mode : Constant
Bit rate : 640 kb/s
Channel(s) : 6 channels
Channel layout : L R C LFE Ls Rs
Sampling rate : 48.0 kHz
Frame rate : 31.250 FPS (1536 SPF)
Compression mode : Lossy
Stream size : 274 MiB (10%)
Title : Org. Amz / DD+ 5.1 / 640kbps / 48kHz ~ The.PunisheR
Language : Hindi
Service kind : Complete Main
Default : Yes
Forced : Yes

Audio #2
ID : 3
Format : E-AC-3
Format/Info : Enhanced AC-3
Commercial name : Dolby Digital Plus
Codec ID : A_EAC3
Duration : 59 min 58 s
Bit rate mode : Constant
Bit rate : 640 kb/s
Channel(s) : 6 channels
Channel layout : L R C LFE Ls Rs
Sampling rate : 48.0 kHz
Frame rate : 31.250 FPS (1536 SPF)
Compression mode : Lossy
Stream size : 275 MiB (10%)
Title : DD+ 5.1 / 640kbps / 48kHz ~ The.PunisheR
Language : English
Service kind : Complete Main
Default : No
Forced : No

Text #1
ID : 4
Format : PGS
Muxing mode : zlib
Codec ID : S_HDMV/PGS
Codec ID/Info : Picture based subtitle format used on BDs/HD-DVDs
Duration : 57 min 21 s
Bit rate : 39.2 kb/s
Count of elements : 1707
Stream size : 16.1 MiB (1%)
Title : English-PGS
Language : English
Default : No
Forced : No

Text #2
ID : 5
Format : PGS
Muxing mode : zlib
Codec ID : S_HDMV/PGS
Codec ID/Info : Picture based subtitle format used on BDs/HD-DVDs
Duration : 59 min 36 s
Bit rate : 44.7 kb/s
Count of elements : 2092
Stream size : 19.1 MiB (1%)
Title : English-PGS {SDH}
Language : English
Default : No
Forced : No

Menu
00:00:00.000 : :Chapter 1
00:00:16.016 : :Chapter 2
00:11:44.704 : :Chapter 3
00:19:55.861 : :Chapter 4
00:31:05.864 : :Chapter 5
00:41:14.472 : :Chapter 6
00:51:07.064 : :Chapter 7
00:57:58.141 : :Chapter 8

Other Site Encodes Release  : https://1337x.to/user/Sava/

Article By :
Encoder
5 1 vote
Article Rating
Subscribe
Notify of
guest
5 Comments
Oldest
Newest Most Voted
Inline Feedbacks
View all comments
Noopsta
Noopsta
3 months ago

Hi Bro agar Aapko Adsence approval dusri website or cahiye or full set-up karwna hoga Moviesverse ya mkvcinema ki trah tw telegram pr aap sms kr skty ha @trex_000

DB9
DB9
Admin
3 months ago

Fav season with Incredible ENCODE !!! you’re good lad..

Pawan
Pawan
2 months ago

Can you please upload season 2 of the boys,Thank you

Pawan
Pawan
2 months ago

Bro can you please upload The boys Season 2 ,Thanks in advance

DB9
DB9
Admin
Reply to  Pawan
2 months ago

sure we will upload all 3 Seasons of The Boys