The Conjuring – The Devil Made Me Do It (2021) 1080p BluRay REMUX AVC [Org Hindi-Tamil-Telugu BD 2.0 192Kbps + English TrueHD 7.1 Atmos] MSubs 26GB

The Conjuring The Devil Made Me Do It - UNIVERSCD
Qnap - [ MediaInfo ] [ HD Station ] Get information on your media files | Forum des NAS : Synology, Qnap, Asustor...

Complete name : The Conjuring – The Devil Made Me Do It (2021) 1080p BluRay REMUX AVC [Org Hindi-Tamil-Telugu BD 2.0 192Kbps + English TrueHD 7.1 Atmos] MSubs.mkv
Format : Matroska
Format version : Version 4
File size : 26.5 GiB
Duration : 1 h 51 min
Overall bit rate mode : Variable
Overall bit rate : 34.0 Mb/s
Writing application : mkvmerge v53.0.0 (‘Fool’s Gold’) 64-bit
Writing library : libebml v1.4.1 + libmatroska v1.6.2

Video
ID : 1
Format : AVC
Format/Info : Advanced Video Codec
Format profile : [email protected]
Format settings : CABAC / 2 Ref Frames
Format settings, CABAC : Yes
Format settings, Reference frames : 2 frames
Format settings, GOP : M=1, N=10
Codec ID : V_MPEG4/ISO/AVC
Duration : 1 h 51 min
Bit rate mode : Variable
Bit rate : 28.8 Mb/s
Width : 1 920 pixels
Height : 1 080 pixels
Display aspect ratio : 16:9
Frame rate mode : Constant
Frame rate : 23.976 (24000/1001) FPS
Color space : YUV
Chroma subsampling : 4:2:0
Bit depth : 8 bits
Scan type : Progressive
Bits/(Pixel*Frame) : 0.579
Stream size : 22.5 GiB (85%)
Title : REMUX by Luke
Default : Yes
Forced : No

Audio #1
ID : 2
Format : AC-3
Format/Info : Audio Coding 3
Commercial name : Dolby Digital
Format settings : Dolby Surround
Codec ID : A_AC3
Duration : 1 h 51 min
Bit rate mode : Constant
Bit rate : 192 kb/s
Channel(s) : 2 channels
Channel layout : L R
Sampling rate : 48.0 kHz
Frame rate : 31.250 FPS (1536 SPF)
Compression mode : Lossy
Stream size : 154 MiB (1%)
Title : Org BD DD 2.0 192Kbps ~ Luke
Language : Hindi
Service kind : Complete Main
Default : Yes
Forced : Yes

Audio #2
ID : 3
Format : AC-3
Format/Info : Audio Coding 3
Commercial name : Dolby Digital
Format settings : Dolby Surround
Codec ID : A_AC3
Duration : 1 h 51 min
Bit rate mode : Constant
Bit rate : 192 kb/s
Channel(s) : 2 channels
Channel layout : L R
Sampling rate : 48.0 kHz
Frame rate : 31.250 FPS (1536 SPF)
Compression mode : Lossy
Stream size : 154 MiB (1%)
Title : Org BD DD 2.0 192Kbps ~ Luke
Language : Tamil
Service kind : Complete Main
Default : No
Forced : No

Audio #3
ID : 4
Format : AC-3
Format/Info : Audio Coding 3
Commercial name : Dolby Digital
Format settings : Dolby Surround
Codec ID : A_AC3
Duration : 1 h 51 min
Bit rate mode : Constant
Bit rate : 192 kb/s
Channel(s) : 2 channels
Channel layout : L R
Sampling rate : 48.0 kHz
Frame rate : 31.250 FPS (1536 SPF)
Compression mode : Lossy
Stream size : 154 MiB (1%)
Title : Org BD DD 2.0 192Kbps ~ Luke
Language : Telugu
Service kind : Complete Main
Default : No
Forced : No

Audio #4
ID : 5
Format : MLP FBA 16-ch
Format/Info : Meridian Lossless Packing FBA with 16-channel presentation
Commercial name : Dolby TrueHD with Dolby Atmos
Codec ID : A_TRUEHD
Duration : 1 h 51 min
Bit rate mode : Variable
Bit rate : 3 857 kb/s
Maximum bit rate : 8 283 kb/s
Channel(s) : 8 channels
Channel layout : L R C LFE Ls Rs Lb Rb
Sampling rate : 48.0 kHz
Frame rate : 1 200.000 FPS (40 SPF)
Compression mode : Lossless
Stream size : 3.01 GiB (11%)
Title : English TrueHD 7.1 Atmos
Language : English
Default : No
Forced : No
Number of dynamic objects : 11
Bed channel count : 1 channel
Bed channel configuration : LFE

Audio #5
ID : 6
Format : AC-3
Format/Info : Audio Coding 3
Commercial name : Dolby Digital
Codec ID : A_AC3
Duration : 1 h 51 min
Bit rate mode : Constant
Bit rate : 640 kb/s
Channel(s) : 6 channels
Channel layout : L R C LFE Ls Rs
Sampling rate : 48.0 kHz
Frame rate : 31.250 FPS (1536 SPF)
Compression mode : Lossy
Stream size : 512 MiB (2%)
Title : English DD 5.1 640Kbps
Language : English
Service kind : Complete Main
Default : No
Forced : No

Text #1
ID : 7
Format : PGS
Muxing mode : zlib
Codec ID : S_HDMV/PGS
Codec ID/Info : Picture based subtitle format used on BDs/HD-DVDs
Duration : 1 h 35 min
Bit rate : 1 161 b/s
Count of elements : 106
Stream size : 816 KiB (0%)
Title : Hindi BD-PGS {Forced}
Language : Hindi
Default : Yes
Forced : Yes

Text #2
ID : 8
Format : PGS
Muxing mode : zlib
Codec ID : S_HDMV/PGS
Codec ID/Info : Picture based subtitle format used on BDs/HD-DVDs
Duration : 1 h 45 min
Bit rate : 28.1 kb/s
Count of elements : 2552
Stream size : 21.3 MiB (0%)
Title : English BD-PGS-SDH
Language : English
Default : No
Forced : No

Text #3
ID : 9
Format : PGS
Muxing mode : zlib
Codec ID : S_HDMV/PGS
Codec ID/Info : Picture based subtitle format used on BDs/HD-DVDs
Duration : 1 h 35 min
Bit rate : 2 126 b/s
Count of elements : 106
Stream size : 1.46 MiB (0%)
Title : Tamil BD-PGS {Forced}
Language : Tamil
Default : No
Forced : Yes

Text #4
ID : 10
Format : PGS
Muxing mode : zlib
Codec ID : S_HDMV/PGS
Codec ID/Info : Picture based subtitle format used on BDs/HD-DVDs
Duration : 1 h 35 min
Bit rate : 1 751 b/s
Count of elements : 108
Stream size : 1.20 MiB (0%)
Title : Telugu BD-PGS {Forced}
Language : Telugu
Default : No
Forced : Yes

Menu
00:00:00.000 : Chapter 01
00:11:09.502 : Chapter 02
00:20:04.286 : Chapter 03
00:30:26.074 : Chapter 04
00:39:40.253 : Chapter 05
00:50:33.572 : Chapter 06
01:00:03.683 : Chapter 07
01:11:42.089 : Chapter 08
01:19:42.778 : Chapter 09
01:31:43.998 : Chapter 10
01:40:57.301 : Chapter 11

HD Website Screenshot API | ScreenshotAPI.net
vlcsnap-2022-08-05-16h45m53s824.pngvlcsnap-2022-08-05-16h45m59s833vlcsnap-2022-08-05-16h46m14s523vlcsnap-2022-08-05-16h46m17s825vlcsnap-2022-08-05-16h46m21s004vlcsnap-2022-08-05-16h46m23s936vlcsnap-2022-08-05-16h46m29s719vlcsnap-2022-08-05-16h46m33s745vlcsnap-2022-08-05-16h46m37s807
File:U (micro) Torrent logo.svg - Wikimedia CommonsClick Here For Download

 

 

 

 

 

 

 

 

 

 

 

 

Article By :
I am uploader thats it
0 0 votes
Article Rating
Subscribe
Notify of
guest
0 Comments
Inline Feedbacks
View all comments