The.Gray.Man.2022.1080p.10bit.DS4K.NF.WEBRip.Hindi+English.DDP5.1.Atmos.MSubs.HEVC-The.PunisheR | 4.64 GB |

The.Gray.Man.2022.1080p.10bit.DS4K.NF.WEBRip.Hindi+English.DDP5.1.Atmos.MSubs.HEVC-The.PunisheR.mkv – 4.64 GB

Link 1 : https://new1.gdtot.cfd/file/14936539266

MediaInfos:
General
Unique ID : 243630691615524260012604099198206227557 (0xB749907ED6CF2419332AFD34BD5E3465)
Complete name : The.Gray.Man.2022.1080p.10bit.DS4K.NF.WEBRip.Hindi+English.DDP5.1.Atmos.MSubs.HEVC-The.PunisheR.mkv
Format : Matroska
Format version : Version 4 / Version 2
File size : 4.64 GiB
Duration : 2 h 9 min
Overall bit rate : 5 144 kb/s
Movie name : The.PunisheR
Encoded date : UTC 2022-10-24 03:24:22
Writing application : mkvmerge v70.0.0 ('Caught A Lite Sneeze') 64-bit
Writing library : libebml v1.4.2 + libmatroska v1.6.4
Attachments : Encoded-By-The-PunisheR.jpg

Video
ID : 1
Format : HEVC
Format/Info : High Efficiency Video Coding
Format profile : Main [email protected]@High
Codec ID : V_MPEGH/ISO/HEVC
Duration : 2 h 9 min
Bit rate : 3 603 kb/s
Width : 1 920 pixels
Height : 804 pixels
Display aspect ratio : 2.40:1
Frame rate mode : Constant
Frame rate : 24.000 FPS
Color space : YUV
Chroma subsampling : 4:2:0 (Type 0)
Bit depth : 10 bits
Bits/(Pixel*Frame) : 0.097
Stream size : 3.25 GiB (70%)
Title : 1080p / 10bit / DS4K / NF / WEBRip / Q14.5 / HPL / HEVC ~ The.PunisheR
Default : Yes
Forced : No
Color range : Limited
Color primaries : BT.709
Transfer characteristics : BT.709
Matrix coefficients : BT.709

Audio #1
ID : 2
Format : E-AC-3
Format/Info : Enhanced Audio Coding 3
Format profile : E-AC-3+Atmos / E-AC-3
Codec ID : A_EAC3
Duration : 2 h 9 min
Bit rate mode : Constant
Bit rate : 768 kb/s
Channel(s) : 15 objects / 6 channels
Channel positions : 15 objects / Front: L C R, Side: L R, LFE
Sampling rate : 48.0 kHz
Frame rate : 187.500 FPS (256 SPF)
Compression mode : Lossy
Stream size : 709 MiB (15%)
Title : DD+5.1 / Atmos / 768kbps / 48kHz ~ The.PunisheR
Language : Hindi
Service kind : Complete Main
Default : Yes
Forced : Yes

Audio #2
ID : 3
Format : E-AC-3
Format/Info : Enhanced Audio Coding 3
Format profile : E-AC-3+Atmos / E-AC-3
Codec ID : A_EAC3
Duration : 2 h 9 min
Bit rate mode : Constant
Bit rate : 768 kb/s
Channel(s) : 15 objects / 6 channels
Channel positions : 15 objects / Front: L C R, Side: L R, LFE
Sampling rate : 48.0 kHz
Frame rate : 187.500 FPS (256 SPF)
Compression mode : Lossy
Stream size : 709 MiB (15%)
Title : DD+5.1 / Atmos / 768kbps / 48kHz ~ The.PunisheR
Language : English
Service kind : Complete Main
Default : No
Forced : No

Text #1
ID : 4
Format : UTF-8
Codec ID : S_TEXT/UTF8
Codec ID/Info : UTF-8 Plain Text
Duration : 2 h 6 min
Bit rate : 78 b/s
Count of elements : 1813
Stream size : 73.0 KiB (0%)
Title : English
Language : English
Default : No
Forced : No

Other Site Encodes Release  : https://1337x.to/user/Sava/

Article By :
Encoder
0 0 votes
Article Rating
Subscribe
Notify of
guest
0 Comments
Inline Feedbacks
View all comments