The.Great.Weddings.Of.Munnes.S01.1080p.VOOT.WEB-DL.AAC2.0.H.264 13GB

The Great Weddings of Munnes (TV Series 2022– ) - IMDb

Qnap - [ MediaInfo ] [ HD Station ] Get information on your media files | Forum des NAS : Synology, Qnap, Asustor...

Complete name : The.Great.Weddings.Of.Munnes.S01.E09.1080p.VOOT.WEB-DL.AAC2.0.H.264-Cybertron.mkv
Format : MPEG-4
Format profile : JVT
Codec ID : avc1 (isom/avc1)
File size : 1.51 GiB
Duration : 26 min 47 s
Overall bit rate mode : Variable
Overall bit rate : 8 080 kb/s

Video
ID : 2
Format : AVC
Format/Info : Advanced Video Codec
Format profile : [email protected]
Format settings : CABAC / 4 Ref Frames
Format settings, CABAC : Yes
Format settings, Reference frames : 4 frames
Format settings, GOP : M=8, N=50
Codec ID : avc1
Codec ID/Info : Advanced Video Coding
Duration : 26 min 47 s
Bit rate mode : Variable
Bit rate : 7 885 kb/s
Maximum bit rate : 11.2 Mb/s
Width : 1 920 pixels
Height : 1 080 pixels
Display aspect ratio : 16:9
Frame rate mode : Constant
Frame rate : 23.976 (24000/1001) FPS
Color space : YUV
Chroma subsampling : 4:2:0
Bit depth : 8 bits
Scan type : Progressive
Bits/(Pixel*Frame) : 0.159
Stream size : 1.48 GiB (98%)
Encoded date : UTC 2022-07-16 05:00:41
Tagged date : UTC 2022-07-16 05:00:41
Color range : Limited
Color primaries : BT.709
Transfer characteristics : BT.709
Matrix coefficients : BT.709
Codec configuration box : avcC

Audio
ID : 1
Format : AAC LC
Format/Info : Advanced Audio Codec Low Complexity
Codec ID : mp4a-40-2
Duration : 26 min 47 s
Bit rate mode : Constant
Bit rate : 192 kb/s
Channel(s) : 2 channels
Channel layout : L R
Sampling rate : 48.0 kHz
Frame rate : 46.875 FPS (1024 SPF)
Compression mode : Lossy
Stream size : 36.3 MiB (2%)
Language : Hindi
Default : Yes

HD Website Screenshot API | ScreenshotAPI.net

File:U (micro) Torrent logo.svg - Wikimedia CommonsClick Here For Download

Article By :
I am uploader thats it
3 1 vote
Article Rating
Subscribe
Notify of
guest
0 Comments
Inline Feedbacks
View all comments