The Hitmans Wifes Bodyguard 2021 EXTENDED 1080p 10bit BluRay [Org. DDP5.1 – Hindi + DDP7.1 – English] ESub HEVC | The.PunisheR | 5.25 GB |

The.Hitmans.Wifes.Bodyguard.2021.EXTENDED.1080p.10bit.BluRay.[Org.DDP5.1-Hindi+DDP7.1-English].ESub.HEVC | The.PunisheR | 5.25 GB |

General
Unique ID : 54768957088121453331999184544295612649 (0x29341E111092CA6ABAD78BCB0C38F0E9)
Complete name : The.Hitmans.Wifes.Bodyguard.2021.EXTENDED.1080p.10bit.BluRay.[Org.DDP5.1-Hindi+DDP7.1-English].ESub.HEVC-The.PunisheR.mkv
Format : Matroska
Format version : Version 4 / Version 2
File size : 5.25 GiB
Duration : 1 h 56 min
Overall bit rate : 6 443 kb/s
Movie name : The.PunisheR
Encoded date : UTC 2021-12-18 04:12:47
Writing application : mkvmerge v62.0.0 ('Apollo') 64-bit
Writing library : libebml v1.4.2 + libmatroska v1.6.4
Attachments : Encoded.By-The.PunisheR.jpg

Video
ID : 1
Format : HEVC
Format/Info : High Efficiency Video Coding
Format profile : Main [email protected]@Main
Codec ID : V_MPEGH/ISO/HEVC
Duration : 1 h 56 min
Bit rate : 5 032 kb/s
Width : 1 920 pixels
Height : 804 pixels
Display aspect ratio : 2.40:1
Frame rate mode : Constant
Frame rate : 23.976 (24000/1001) FPS
Color space : YUV
Chroma subsampling : 4:2:0
Bit depth : 10 bits
Bits/(Pixel*Frame) : 0.136
Stream size : 4.10 GiB (78%)
Title : 1080p / 10bit / BluRay / Q15 / HEVC ~ The.PunisheR
Default : Yes
Forced : No
Color range : Limited
Color primaries : BT.709
Transfer characteristics : BT.709
Matrix coefficients : BT.709

Audio #1
ID : 2
Format : E-AC-3
Format/Info : Enhanced Audio Coding 3
Codec ID : A_EAC3
Duration : 1 h 56 min
Bit rate mode : Constant
Bit rate : 640 kb/s
Channel(s) : 6 channels
Channel positions : Front: L C R, Side: L R, LFE
Sampling rate : 48.0 kHz
Frame rate : 187.500 FPS (256 SPF)
Compression mode : Lossy
Stream size : 534 MiB (10%)
Title : Org. AMZN / DD+ 5.1 / 640kbps / 48kHz ~ The.PunisheR
Language : Hindi
Service kind : Complete Main
Default : Yes
Forced : Yes

Audio #2
ID : 3
Format : E-AC-3
Format/Info : Enhanced Audio Coding 3
Format profile : E-AC-3+Dep / E-AC-3
Codec ID : A_EAC3
Duration : 1 h 56 min
Bit rate mode : Constant
Bit rate : 768 kb/s / 430 kb/s
Channel(s) : 8 channels / 6 channels
Channel positions : Front: L C R, Side: L R, Back: L R, LFE / Front: L C R, Side: L R, LFE
Sampling rate : 48.0 kHz
Frame rate : 187.500 FPS (256 SPF)
Compression mode : Lossy
Stream size : 641 MiB (12%)
Title : DD+ 7.1 / 768kbps / 48kHz (Core: DD+5.1 / 430kbps / 48kHz) ~ The.PunisheR
Language : English
Service kind : Complete Main
Default : No
Forced : No

Text
ID : 4
Format : UTF-8
Codec ID : S_TEXT/UTF8
Codec ID/Info : UTF-8 Plain Text
Duration : 1 h 49 min
Bit rate : 78 b/s
Count of elements : 2036
Stream size : 62.9 KiB (0%)
Title : English - SRT
Language : English
Default : No
Forced : No

Menu
00:00:00.000 : :Chapter 01
00:09:13.928 : :Chapter 02
00:19:37.092 : :Chapter 03
00:29:26.389 : :Chapter 04
00:36:33.316 : :Chapter 05
00:47:14.540 : :Chapter 06
00:56:26.216 : :Chapter 07
01:10:33.312 : :Chapter 08
01:20:05.801 : :Chapter 09
01:29:03.004 : :Chapter 10
01:35:24.552 : :Chapter 11
01:48:43.517 : :Chapter 12

📂 The.Hitmans.Wifes.Bodyguard.2021.EXTENDED.1080p.10bit.BluRay.[Org.DDP5.1-Hindi+DDP7.1-English].ESub.HEVC-The.PunisheR.mkv

Other Site Encodes Release  : https://1337x.to/user/Sava/

Article By :
Encoder
0 0 votes
Article Rating
Subscribe
Notify of
guest
0 Comments
Inline Feedbacks
View all comments