The.Matrix.Resurrections.2021.1080p.10bit.BluRay.[Org.BD.DD5.1-Hindi+DDP7.1-English].MSubs.HEVC-The.PunisheR | 6.06 GB |

The.Matrix.Resurrections.2021.1080p.10bit.BluRay.[Org.BD.DD5.1-Hindi+DDP7.1-English].MSubs.HEVC-The.PunisheR | 6.06 GB |

General
Unique ID : 188184262132486037380622837784995724589 (0x8D92F875FCA554962CA2FB24CAEC7D2D)
Complete name : The.Matrix.Resurrections.2021.1080p.10bit.BluRay.[Org.BD.DD5.1-Hindi+DDP7.1-English].MSubs.HEVC-The.PunisheR.mkv
Format : Matroska
Format version : Version 4
File size : 6.06 GiB
Duration : 2 h 27 min
Overall bit rate : 5 863 kb/s
Movie name : The.PunisheR
Encoded date : UTC 2022-02-23 17:56:39
Writing application : mkvmerge v65.0.0 (‘Too Much’) 64-bit
Writing library : libebml v1.4.2 + libmatroska v1.6.4
Attachments : Encoded.By-The.PunisheR.jpg

Video
ID : 1
Format : HEVC
Format/Info : High Efficiency Video Coding
Format profile : Main [email protected]@Main
Codec ID : V_MPEGH/ISO/HEVC
Duration : 2 h 27 min
Bit rate : 4 634 kb/s
Width : 1 920 pixels
Height : 804 pixels
Display aspect ratio : 2.40:1
Frame rate mode : Constant
Frame rate : 23.976 (24000/1001) FPS
Color space : YUV
Chroma subsampling : 4:2:0 (Type 0)
Bit depth : 10 bits
Bits/(Pixel*Frame) : 0.125
Stream size : 4.79 GiB (79%)
Title : 1080p / 10bit / BluRay / Q14 / HEVC ~ The.PunisheR
Default : Yes
Forced : Yes
Color range : Limited
Color primaries : BT.709
Transfer characteristics : BT.709
Matrix coefficients : BT.709

Audio #1
ID : 2
Format : AC-3
Format/Info : Audio Coding 3
Commercial name : Dolby Digital
Codec ID : A_AC3
Duration : 2 h 27 min
Bit rate mode : Constant
Bit rate : 448 kb/s
Channel(s) : 6 channels
Channel layout : L R C LFE Ls Rs
Sampling rate : 48.0 kHz
Frame rate : 31.250 FPS (1536 SPF)
Compression mode : Lossy
Stream size : 474 MiB (8%)
Title : Org. BD / DD 5.1 / 448kbps / 48kHz ~The.PunisheR
Language : Hindi
Service kind : Complete Main
Default : Yes
Forced : Yes

Audio #2
ID : 3
Format : E-AC-3
Format/Info : Enhanced AC-3
Commercial name : Dolby Digital Plus
Format settings : Dolby Surround EX
Codec ID : A_EAC3
Duration : 2 h 27 min
Bit rate mode : Constant
Bit rate : 768 kb/s
Channel(s) : 8 channels
Channel layout : L R C LFE Ls Rs Lb Rb
Sampling rate : 48.0 kHz
Frame rate : 31.250 FPS (1536 SPF)
Compression mode : Lossy
Stream size : 813 MiB (13%)
Title : DD+7.1 / 768kbps / 48kHz (Core: DD+5.1 / 430kbps / 48kHz) ~ The.PunisheR
Language : English
Service kind : Complete Main
Default : No
Forced : No

Text #1
ID : 4
ID in the original source medium : 4608 (0x1200)
Format : PGS
Muxing mode : zlib
Codec ID : S_HDMV/PGS
Codec ID/Info : Picture based subtitle format used on BDs/HD-DVDs
Duration : 2 h 27 min
Bit rate : 32.6 kb/s
Count of elements : 4162
Stream size : 34.5 MiB (1%)
Title : English – BD – PGS
Language : English
Default : No
Forced : No
Original source medium : Blu-ray

Text #2
ID : 5
ID in the original source medium : 4623 (0x120F)
Format : PGS
Muxing mode : zlib
Codec ID : S_HDMV/PGS
Codec ID/Info : Picture based subtitle format used on BDs/HD-DVDs
Duration : 2 h 25 min
Bit rate : 477 b/s
Count of elements : 70
Stream size : 509 KiB (0%)
Title : Hindi – BD – PGS {FORCED}
Language : Hindi
Default : No
Forced : Yes
Original source medium : Blu-ray

Text #3
ID : 6
ID in the original source medium : 4625 (0x1211)
Format : PGS
Muxing mode : zlib
Codec ID : S_HDMV/PGS
Codec ID/Info : Picture based subtitle format used on BDs/HD-DVDs
Duration : 2 h 26 min
Bit rate : 597 b/s
Count of elements : 64
Stream size : 640 KiB (0%)
Title : Tamil – BD – PGS {FORCED}
Language : Tamil
Default : No
Forced : No
Original source medium : Blu-ray

Text #4
ID : 7
ID in the original source medium : 4626 (0x1212)
Format : PGS
Muxing mode : zlib
Codec ID : S_HDMV/PGS
Codec ID/Info : Picture based subtitle format used on BDs/HD-DVDs
Duration : 2 h 25 min
Bit rate : 489 b/s
Count of elements : 64
Stream size : 522 KiB (0%)
Title : Telugu – BD – PGS {FORCED}
Language : Telugu
Default : No
Forced : No
Original source medium : Blu-ray

Menu
00:00:00.000 : en:Chapter 01
00:04:06.079 : en:Chapter 02
00:13:44.782 : en:Chapter 03
00:22:39.358 : en:Chapter 04
00:30:47.637 : en:Chapter 05
00:39:00.630 : en:Chapter 06
00:47:42.485 : en:Chapter 07
00:54:20.799 : en:Chapter 08
01:03:01.194 : en:Chapter 09
01:11:51.557 : en:Chapter 10
01:20:40.294 : en:Chapter 11
01:30:30.258 : en:Chapter 12
01:39:38.681 : en:Chapter 13
01:48:59.867 : en:Chapter 14
01:53:17.874 : en:Chapter 15
02:02:57.620 : en:Chapter 16
02:12:33.445 : en:Chapter 17
02:16:40.901 : en:Chapter 18

Google Drive Link  : https://new.gdtot.xyz/file/6506668765

Other Site Encodes Release  : https://1337x.to/user/Sava/

Article By :
Encoder
0 0 votes
Article Rating
Subscribe
Notify of
guest
0 Comments
Inline Feedbacks
View all comments