Thor – Love and Thunder (2022 ) 1080p 10bit DS4K WEBRip [Org.DDP5.1-Hindi+DDP5.1-English] Atmos ESub HEVC – | The PunisheR | 4.3 GB |

Thor: Love and Thunder (2022) - IMDb

Thor – Love and Thunder (2022 ) 1080p 10bit DS4K WEBRip [Org.DDP5.1-Hindi+DDP5.1-English] Atmos ESub HEVC – | The PunisheR | 4.3 GB 

Link 1 : https://new2.gdtot.sbs/file/4615777332

Link 2 : https://gdflix.pro/file/kyG0p3CSw2

ℹ️

MediaInfos:
General
Unique ID : 15836465838278746078494774019638116310 (0xBE9FE0C6D4E8295295FEE33B9573FD6)
Complete name : Thor-Love.and.Thunder.2022.1080p.10bit.DS4K.WEBRip.[Org.DDP5.1-Hindi+DDP5.1-English].Atmos.ESub.HEVC-The.PunisheR.mkv
Format : Matroska
Format version : Version 4
File size : 4.30 GiB
Duration : 1 h 58 min
Overall bit rate : 5 183 kb/s
Movie name : The.PunisheR
Encoded date : UTC 2022-09-14 09:55:38
Writing application : mkvmerge v70.0.0 (‘Caught A Lite Sneeze’) 64-bit
Writing library : libebml v1.4.2 + libmatroska v1.6.4
Attachments : Encoded-By-The-PunisheR.jpg

Video
ID : 1
Format : HEVC
Format/Info : High Efficiency Video Coding
Format profile : Main [email protected]@High
Codec ID : V_MPEGH/ISO/HEVC
Duration : 1 h 58 min
Bit rate : 4 221 kb/s
Width : 1 920 pixels
Height : 804 pixels
Display aspect ratio : 2.40:1
Frame rate mode : Constant
Frame rate : 23.976 (24000/1001) FPS
Color space : YUV
Chroma subsampling : 4:2:0 (Type 2)
Bit depth : 10 bits
Bits/(Pixel*Frame) : 0.114
Stream size : 3.50 GiB (81%)
Title : 1080p / 10bit / DS4K / MA / WEBRip / Q15 / HPL / HEVC ~ The.PunisheR
Default : Yes
Forced : Yes
Color range : Limited
Color primaries : BT.709
Transfer characteristics : BT.709
Matrix coefficients : BT.709

Audio #1
ID : 2
Format : E-AC-3
Format/Info : Enhanced AC-3
Commercial name : Dolby Digital Plus
Codec ID : A_EAC3
Duration : 1 h 58 min
Bit rate mode : Constant
Bit rate : 192 kb/s
Channel(s) : 6 channels
Channel layout : L R C LFE Ls Rs
Sampling rate : 48.0 kHz
Frame rate : 31.250 FPS (1536 SPF)
Compression mode : Lossy
Delay relative to video : 1 s 156 ms
Stream size : 163 MiB (4%)
Title : Org. DSNP / DD+5.1 / 192kbps / 48kHz ~ The.PunisheR
Language : Hindi
Service kind : Complete Main
Default : Yes
Forced : Yes

Audio #2
ID : 3
Format : E-AC-3 JOC
Format/Info : Enhanced AC-3 with Joint Object Coding
Commercial name : Dolby Digital Plus with Dolby Atmos
Codec ID : A_EAC3
Duration : 1 h 58 min
Bit rate mode : Constant
Bit rate : 768 kb/s
Channel(s) : 6 channels
Channel layout : L R C LFE Ls Rs
Sampling rate : 48.0 kHz
Frame rate : 31.250 FPS (1536 SPF)
Compression mode : Lossy
Stream size : 652 MiB (15%)
Title : DD+5.1 / Atmos / 768kbps / 48kHz ~ The.PunisheR
Language : English
Service kind : Complete Main
Default : No
Forced : No
Complexity index : 16
Number of dynamic objects : 15
Bed channel count : 1 channel
Bed channel configuration : LFE

Other Site Encodes Release  : https://1337x.to/user/Sava/

Article By :
Uploder / Encoder
0 0 votes
Article Rating
Subscribe
Notify of
guest
1 Comment
Oldest
Newest Most Voted
Inline Feedbacks
View all comments
facc75505@gmail.com
[email protected]
21 days ago

Please upload She Hulk too