Thor – Love and Thunder (2022) 2160p UHD BluRay Remux HDR HEVC [Hindi DD 5.1 192Kbps – Eng TrueHD 7.1]-MSubs~ | (Tom) TeMPo | 47GB |

Marvel's “Thor: Love And Thunder” Digital/DVD/Blu-Ray/4K Details Announced – What's On Disney Plus

7hkhpPTWNM83JkRasjIcly8GGjS copy.png

 

Thor.Love.and.Thunder.2022.2160p.UHD.BluRay.Remux.HDR.HEVC.[Hindi DD 5.1 192Kbps – Eng TrueHD 7.1]-MSubs~(Tom) TeMPo.mkv [47GB]

Link 1 : https://appdrive.info/file/Rl8O0Jjy0iUmcEONr7yE

Link 2 : https://appdrive.info/file/p0fKARpEnbo0WzI9Dk9r

Link 3 : https://new2.gdtot.sbs/file/50399350851

ℹ️
—GENERAL—-
SIZE…………: 47.5 GiB
RUNTIME………: 1 h 58 min

Format                                   : Matroska
Format version                           : Version 4 / Version 2
File size                                : 47.0 GiB
Duration                                 : 1 h 58 min
Overall bit rate mode                    : Variable
Overall bit rate                         : 56.7 Mb/s
Movie name                               : Thor.Love.and.Thunder.2022.2160p.UHD.BluRay.Remux.HDR.HEVC.[Hindi DD 5.1 192Kbps - Eng TrueHD 7.1]-MSubs~(Tom) TeMPo.mkv
Encoded date                             : UTC 2022-09-14 20:08:19
Writing application                      : mkvmerge v69.0.0 ('Day And Age') 64-bit
Writing library                          : libebml v1.4.2 + libmatroska v1.6.4
IMDB                                     : tt10648342
TMDB                                     : movie/616037

Video
ID                                       : 1
Format                                   : HEVC
Format/Info                              : High Efficiency Video Coding
Format profile                           : Main [email protected]@High
Codec ID                                 : V_MPEGH/ISO/HEVC
Duration                                 : 1 h 58 min
Bit rate                                 : 51.1 Mb/s
Width                                    : 3 840 pixels
Height                                   : 2 160 pixels
Display aspect ratio                     : 16:9
Frame rate mode                          : Constant
Frame rate                               : 23.976 (24000/1001) FPS
Color space                              : YUV
Chroma subsampling                       : 4:2:0 (Type 2)
Bit depth                                : 10 bits
Bits/(Pixel*Frame)                       : 0.257
Stream size                              : 42.4 GiB (90%)
Title                                    : ~Tom~
Language                                 : English
Default                                  : Yes
Forced                                   : No
Color range                              : Limited
Color primaries                          : BT.2020
Transfer characteristics                 : PQ
Matrix coefficients                      : BT.2020 non-constant
Mastering display color primaries        : BT.2020
Mastering display luminance              : min: 0.0050 cd/m2, max: 1000 cd/m2

Audio #1
ID                                       : 2
Format                                   : E-AC-3
Format/Info                              : Enhanced Audio Coding 3
Codec ID                                 : A_EAC3
Duration                                 : 1 h 58 min
Bit rate mode                            : Constant
Bit rate                                 : 192 kb/s
Channel(s)                               : 6 channels
Channel positions                        : Front: L C R, Side: L R, LFE
Sampling rate                            : 48.0 kHz
Frame rate                               : 187.500 FPS (256 SPF)
Compression mode                         : Lossy
Delay relative to video                  : 1 s 0 ms
Stream size                              : 163 MiB (0%)
Title                                    : ~Tom~
Language                                 : Hindi
Service kind                             : Complete Main
Default                                  : Yes
Forced                                   : No

Audio #2
ID                                       : 3
Format                                   : TrueHD
Format profile                           : TrueHD+Atmos / TrueHD
Codec ID                                 : A_TRUEHD
Duration                                 : 1 h 58 min
Bit rate mode                            : Variable
Bit rate                                 : 4 691 kb/s
Maximum bit rate                         : 8 409 kb/s
Channel(s)                               : Object Based / 8 channels
Channel positions                        : Object Based / Front: L C R, Side: L R, Back: L R, LFE
Sampling rate                            :  / 48.0 kHz
Frame rate                               : 1 200.000 FPS (40 SPF)
Compression mode                         : Lossless
Stream size                              : 3.89 GiB (8%)
Title                                    : Dolby TrueHD/Atmos Audio / 7.1 ~Tom~
Language                                 : English
Default                                  : Yes
Forced                                   : No

Audio #3
ID                                       : 4
Format                                   : AC-3
Format/Info                              : Audio Coding 3
Codec ID                                 : A_AC3
Duration                                 : 1 h 58 min
Bit rate mode                            : Constant
Bit rate                                 : 640 kb/s
Channel(s)                               : 6 channels
Channel positions                        : Front: L C R, Side: L R, LFE
Sampling rate                            : 48.0 kHz
Frame rate                               : 31.250 FPS (1536 SPF)
Bit depth                                : 16 bits
Compression mode                         : Lossy
Stream size                              : 544 MiB (1%)
Title                                    : Dolby Digital Audio / 5.01 / 640 kbps ~Tom~
Language                                 : English
Service kind                             : Complete Main
Default                                  : No
Forced                                   : No

Text
ID                                       : 5
Format                                   : PGS
Muxing mode                              : zlib
Codec ID                                 : S_HDMV/PGS
Codec ID/Info                            : Picture based subtitle format used on BDs/HD-DVDs
Duration                                 : 1 h 58 min
Bit rate                                 : 52.5 kb/s
Count of elements                        : 4548
Stream size                              : 44.4 MiB (0%)
Title                                    : ~Tom~
Language                                 : English
Default                                  : No
Forced                                   : No

Article By :
Uploder / Encoder
4 1 vote
Article Rating
Subscribe
Notify of
guest
0 Comments
Inline Feedbacks
View all comments