Titanic 1997 1080p Remastered HDR HEVC 10Bit x265 HDR Org Hindi DTS BD 5.1 1536Kbps English DD 5.1 MSubs Encoded By SamDUploader.mkv

Titanic (1997) Blu-Ray Cover - DVDcover.Com

Complete name : Titanic 1997 1080p Remastered  HDR HEVC 10Bit x265 HDR Org Hindi DTS BD 5.1 1536Kbps English DD 5.1 MSubs Encoded By SamDUploader.mkv
Format : Matroska
Format version : Version 4
File size : 13.6 GiB
Duration : 3 h 14 min
Overall bit rate : 9 986 kb/s
Movie name : SamDUploader
Encoded date : UTC 2022-06-17 01:13:57
Writing application : mkvmerge v68.0.0 (‘The Curtain’) 64-bit
Writing library : libebml v1.4.2 + libmatroska v1.6.4 / Lavf58.45.100

Video
ID : 1
Format : AVC
Format/Info : Advanced Video Codec
Format profile : [email protected]
Format settings : CABAC / 4 Ref Frames
Format settings, CABAC : Yes
Format settings, Reference frames : 4 frames
Codec ID : V_MPEG4/ISO/AVC
Duration : 3 h 14 min
Bit rate : 6 000 kb/s
Width : 1 920 pixels
Height : 1 080 pixels
Display aspect ratio : 16:9
Frame rate mode : Constant
Frame rate : 23.976 (24000/1001) FPS
Color space : YUV
Chroma subsampling : 4:2:0
Bit depth : 8 bits
Scan type : Progressive
Bits/(Pixel*Frame) : 0.121
Stream size : 8.10 GiB (60%)
Title : Titanic (1999) 1080p Remastered AVC HDR  HEVC 10Bit x265 HDR [Org Hindi BD 5.1 @448Kbps + English DD 5.1] MSubs – Tekno3D EPS
Writing library : x264 core 161
Encoding settings : cabac=1 / ref=3 / deblock=1:0:0 / analyse=0x3:0x113 / me=hex / subme=7 / psy=1 / psy_rd=1.00:0.00 / mixed_ref=1 / me_range=16 / chroma_me=1 / trellis=1 / 8x8dct=1 / cqm=0 / deadzone=21,11 / fast_pskip=1 / chroma_qp_offset=-2 / threads=6 / lookahead_threads=1 / sliced_threads=0 / nr=0 / decimate=1 / interlaced=0 / bluray_compat=0 / constrained_intra=0 / bframes=3 / b_pyramid=2 / b_adapt=1 / b_bias=0 / direct=1 / weightb=1 / open_gop=0 / weightp=2 / keyint=250 / keyint_min=23 / scenecut=40 / intra_refresh=0 / rc_lookahead=40 / rc=abr / mbtree=1 / bitrate=6000 / ratetol=1.0 / qcomp=0.60 / qpmin=0 / qpmax=69 / qpstep=4 / ip_ratio=1.40 / aq=1:1.00
Default : Yes
Forced : No
Color range : Limited
Color primaries : BT.2020
Transfer characteristics : PQ
Matrix coefficients : BT.2020 non-constant

Audio #1
ID : 2
Format : DTS
Format/Info : Digital Theater Systems
Codec ID : A_DTS
Duration : 3 h 14 min
Bit rate mode : Constant
Bit rate : 3 840 kb/s
Channel(s) : 6 channels
Channel layout : C L R Ls Rs LFE
Sampling rate : 48.0 kHz
Frame rate : 93.750 FPS (512 SPF)
Bit depth : 16 bits
Compression mode : Lossy
Stream size : 5.23 GiB (38%)
Title : Org BD 5.1 448Kbps ~ TombDoc
Writing library : Lavc58.91.100 dca
Language : Hindi
Default : Yes
Forced : Yes

Audio #2
ID : 3
Format : AAC LC SBR
Format/Info : Advanced Audio Codec Low Complexity with Spectral Band Replication
Commercial name : HE-AAC
Format settings : Explicit
Codec ID : A_AAC-2
Duration : 3 h 14 min
Bit rate : 192 kb/s
Channel(s) : 6 channels
Channel layout : C L R Ls Rs LFE
Sampling rate : 48.0 kHz
Frame rate : 23.438 FPS (2048 SPF)
Compression mode : Lossy
Delay relative to video : 31 ms
Stream size : 263 MiB (2%)
Title : Track Eng
Language : English
Default : No
Forced : No

Menu
00:00:00.000 : 00:00:00.000
00:01:24.376 : 00:01:24.376
00:04:39.988 : 00:04:39.988
00:08:26.131 : 00:08:26.131
00:10:46.771 : 00:10:46.771
00:12:52.647 : 00:12:52.647
00:16:52.428 : 00:16:52.428
00:20:07.748 : 00:20:07.748
00:23:38.876 : 00:23:38.876
00:26:26.543 : 00:26:26.543
00:29:03.366 : 00:29:03.366
00:29:37.526 : 00:29:37.526
00:34:59.931 : 00:34:59.931
00:36:48.623 : 00:36:48.623
00:42:59.160 : 00:42:59.160
00:45:26.098 : 00:45:26.098
00:47:11.620 : 00:47:11.620
00:53:33.043 : 00:53:33.043
00:56:47.988 : 00:56:47.988
01:05:32.053 : 01:05:32.053
01:10:19.965 : 01:10:19.965
01:14:06.358 : 01:14:06.358
01:16:10.691 : 01:16:10.691
01:19:59.044 : 01:19:59.044
01:22:50.507 : 01:22:50.507
01:23:40.056 : 01:23:40.056
01:28:21.629 : 01:28:21.629
01:29:19.854 : 01:29:19.854
01:32:52.275 : 01:32:52.275
01:36:59.104 : 01:36:59.104
01:44:41.149 : 01:44:41.149
01:46:21.041 : 01:46:21.041
01:47:58.847 : 01:47:58.847
01:50:11.104 : 01:50:11.104
01:52:21.401 : 01:52:21.401
01:53:54.327 : 01:53:54.327
01:55:21.831 : 01:55:21.831
01:56:10.880 : 01:56:10.880
01:57:53.232 : 01:57:53.232
02:06:38.340 : 02:06:38.340
02:08:49.972 : 02:08:49.972
02:11:22.082 : 02:11:22.082
02:15:42.550 : 02:15:42.550
02:19:43.458 : 02:19:43.458
02:21:24.559 : 02:21:24.559
02:25:28.761 : 02:25:28.761
02:27:28.422 : 02:27:28.422
02:29:07.271 : 02:29:07.271
02:29:56.695 : 02:29:56.695
02:33:31.535 : 02:33:31.535
02:36:52.360 : 02:36:52.360
02:38:33.878 : 02:38:33.878
02:40:34.666 : 02:40:34.666
02:45:00.640 : 02:45:00.640
02:47:48.808 : 02:47:48.808
02:49:22.526 : 02:49:22.526
02:52:09.610 : 02:52:09.610
02:53:41.327 : 02:53:41.327
02:57:53.495 : 02:57:53.495
02:59:35.305 : 02:59:35.305
03:01:29.252 : 03:01:29.252
03:03:13.648 : 03:03:13.648
03:04:57.877 : 03:04:57.877
03:07:19.644 : 03:07:19.644






Torrent Proxy | Unblock Torrents - TorrentProxy.co

https://linksly.co/EIqk

Article By :
I am uploader thats it
0 0 votes
Article Rating
Subscribe
Notify of
guest
0 Comments
Inline Feedbacks
View all comments