Top Gun – Maverick (2022) IMAX 1080p 10bit DS4K MA WEBRip [Org.DDP5.1-Hindi+DDP5.1-English] Atmos ESub HEVC – | The.PunisheR | 4.86 GB |

Top.Gun-Maverick.2022.IMAX.1080p.10bit.DS4K.MA.WEBRip.[Org.DDP5.1-Hindi+DDP5.1-English].Atmos.ESub.HEVC-The.PunisheR | 4.86 GB |

Link 1 : https://new2.gdtot.sbs/file/5221187448

Link 2 : https://appdrive.info/file/oa3TrWksTgbvHM902U7V

ℹ️

General
Unique ID : 280311158149645717895285124117395341503 (0xD2E1F71F62388F7FCC9AC789AFFB00BF)
Complete name : Top.Gun-Maverick.2022.IMAX.1080p.10bit.DS4K.MA.WEBRip.[Org.DDP5.1-Hindi+DDP5.1-English].Atmos.ESub.HEVC-The.PunisheR.mkv
Format : Matroska
Format version : Version 4
File size : 4.86 GiB
Duration : 2 h 10 min
Overall bit rate : 5 345 kb/s
Movie name : The.PunisheR
Encoded date : UTC 2022-09-15 09:46:12
Writing application : mkvmerge v70.0.0 (‘Caught A Lite Sneeze’) 64-bit
Writing library : libebml v1.4.2 + libmatroska v1.6.4
Attachments : Encoded-By-The-PunisheR.jpg

Video
ID : 1
Format : HEVC
Format/Info : High Efficiency Video Coding
Format profile : Main [email protected]@High
Codec ID : V_MPEGH/ISO/HEVC
Duration : 2 h 10 min
Bit rate : 3 934 kb/s
Width : 1 920 pixels
Height : 1 038 pixels
Display aspect ratio : 1.85:1
Frame rate mode : Constant
Frame rate : 23.976 (24000/1001) FPS
Color space : YUV
Chroma subsampling : 4:2:0 (Type 0)
Bit depth : 10 bits
Bits/(Pixel*Frame) : 0.082
Stream size : 3.58 GiB (74%)
Title : 1080p / 10bit / IMAX / DS4K / MA / WEBRip / Q16 / HPL / HEVC ~ The.PunisheR
Default : Yes
Forced : No
Color range : Limited
Color primaries : BT.709
Transfer characteristics : BT.709
Matrix coefficients : BT.709

Audio #1
ID : 2
Format : E-AC-3
Format/Info : Enhanced AC-3
Commercial name : Dolby Digital Plus
Codec ID : A_EAC3
Duration : 2 h 10 min
Bit rate mode : Constant
Bit rate : 640 kb/s
Channel(s) : 6 channels
Channel layout : L R C LFE Ls Rs
Sampling rate : 48.0 kHz
Frame rate : 31.250 FPS (1536 SPF)
Compression mode : Lossy
Stream size : 596 MiB (12%)
Title : Org. AMZN / DD+5.1 / 640kbps / 48kHz ~ The.PunisheR
Language : Hindi
Service kind : Complete Main
Default : Yes
Forced : Yes

Audio #2
ID : 3
Format : E-AC-3 JOC
Format/Info : Enhanced AC-3 with Joint Object Coding
Commercial name : Dolby Digital Plus with Dolby Atmos
Codec ID : A_EAC3
Duration : 2 h 10 min
Bit rate mode : Constant
Bit rate : 768 kb/s
Channel(s) : 6 channels
Channel layout : L R C LFE Ls Rs
Sampling rate : 48.0 kHz
Frame rate : 31.250 FPS (1536 SPF)
Compression mode : Lossy
Stream size : 715 MiB (14%)
Title : DD+5.1 / Atmos / 768kbps / 48kHz ~ The.PunisheR
Language : English
Service kind : Complete Main
Default : No
Forced : No
Complexity index : 16
Number of dynamic objects : 15
Bed channel count : 1 channel
Bed channel configuration : LFE

Text #1
ID : 4
Format : UTF-8
Codec ID : S_TEXT/UTF8
Codec ID/Info : UTF-8 Plain Text
Duration : 1 h 57 min
Bit rate : 54 b/s
Frame rate : 0.210 FPS
Count of elements : 1476
Stream size : 46.9 KiB (0%)
Title : English-SRT
Language : English
Default : No
Forced : No

Text #2
ID : 5
Format : UTF-8
Codec ID : S_TEXT/UTF8
Codec ID/Info : UTF-8 Plain Text
Duration : 2 h 1 min
Bit rate : 62 b/s
Frame rate : 0.241 FPS
Count of elements : 1762
Stream size : 55.9 KiB (0%)
Title : English-SRT (SDH)
Language : English
Default : No
Forced : No

Text #3
ID : 6
Format : UTF-8
Codec ID : S_TEXT/UTF8
Codec ID/Info : UTF-8 Plain Text
Duration : 2 h 9 min
Bit rate : 130 b/s
Frame rate : 0.192 FPS
Count of elements : 1488
Stream size : 123 KiB (0%)
Title : Hindi-SRT
Language : Hindi
Default : No
Forced : No

Other Site Encodes Release  : https://1337x.to/user/Sava/

Article By :
Uploder / Encoder
0 0 votes
Article Rating
Subscribe
Notify of
guest
2 Comments
Oldest
Newest Most Voted
Inline Feedbacks
View all comments
Ameer Mulani
Ameer Mulani
20 days ago

The Punisher U quality awesome aur bhi new movies upload karo is website pe