Vikram (2022) Hindi.1080p.10bit.DS4K.DSNP.WEBRip.DD+5.1.MSubs.HEVC | The PunisheR | 6.1 GB |


Vikram.2022.Hindi.1080p.10bit.DS4K.DSNP.WEBRip.DD+5.1.MSubs.HEVC-The.PunisheR.mkv – [6.08 GB]

 https://new.gdtot.art/file/13065402043

MediaInfos:
General
Unique ID : 176771067657133551393234662173450107156 (0x84FCDE872EA86E0351C590DFD29AF914)
Complete name : Vikram.2022.Hindi.1080p.10bit.DS4K.DSNP.WEBRip.DD+5.1.MSubs.HEVC-The.PunisheR.mkv
Format : Matroska
Format version : Version 4 / Version 2
File size : 6.08 GiB
Duration : 2 h 51 min
Overall bit rate : 5 089 kb/s
Movie name : The.PunisheR
Encoded date : UTC 2022-07-09 14:34:09
Writing application : mkvmerge v68.0.0 (‘The Curtain’) 64-bit
Writing library : libebml v1.4.2 + libmatroska v1.6.4
Attachments : Encoded.By-The.PunisheR.jpg

Video
ID : 1
Format : HEVC
Format/Info : High Efficiency Video Coding
Format profile : Main [email protected]@High
Codec ID : V_MPEGH/ISO/HEVC
Duration : 2 h 51 min
Bit rate : 4 894 kb/s
Width : 1 920 pixels
Height : 818 pixels
Display aspect ratio : 2.35:1
Frame rate mode : Constant
Frame rate : 24.000 FPS
Color space : YUV
Chroma subsampling : 4:2:0
Bit depth : 10 bits
Bits/(Pixel*Frame) : 0.130
Stream size : 5.85 GiB (96%)
Title : 1080P / 10bit / DS4K / DSNP / WEBRip / Q15 / HPL / HEVC ~ The.PunisheR
Default : Yes
Forced : No
Color range : Limited
Color primaries : BT.709
Transfer characteristics : BT.709
Matrix coefficients : BT.709

Audio
ID : 2
Format : E-AC-3
Format/Info : Enhanced Audio Coding 3
Format settings, Endianness : Big
Codec ID : A_EAC3
Duration : 2 h 51 min
Bit rate mode : Constant
Bit rate : 192 kb/s
Channel(s) : 6 channels
Channel positions : Front: L C R, Side: L R, LFE
Sampling rate : 48.0 kHz
Frame rate : 187.500 FPS (256 SPF)
Compression mode : Lossy
Stream size : 235 MiB (4%)
Title : DD+5.1 / 192kbps / 48kHz ~ The.PunisheR
Language : Hindi
Service kind : Complete Main
Default : Yes
Forced : No

Other Site Encodes Release  : https://1337x.to/user/Sava/

Article By :
Uploder / Encoder
4 1 vote
Article Rating
Subscribe
Notify of
guest
1 Comment
Oldest
Newest Most Voted
Inline Feedbacks
View all comments
jitendra
jitendra
2 months ago

vivah 2006 movie 1080p Blu-Ray
pardes 1997 1080p Bluray

Last edited 2 months ago by jitendra