Vikram (2022) TRUE WEB-DL – 4K HQ – AVC – UNTOUCHED – (DD+ 5.1 – 192Kbps) [Tam+Hindi] Encoded By SamDUploader 3.9GB


Complete name : Vikram (2022) TRUE WEB-DL – 4K HQ – AVC – UNTOUCHED – (DD+ 5.1 – 192Kbps) [Tam+Hindi] Encoded By SamDUploader.mkv
Format : Matroska
Format version : Version 4
File size : 3.86 GiB
Duration : 2 h 51 min
Overall bit rate : 3 226 kb/s
Writing application : mkvmerge v69.0.0 (‘Day And Age’) 64-bit
Writing library : libebml v1.4.2 + libmatroska v1.6.4
Attachments : TamilMV.png

Video
ID : 1
Format : AVC
Format/Info : Advanced Video Codec
Format profile : High [email protected]
Format settings : CABAC / 4 Ref Frames
Format settings, CABAC : Yes
Format settings, Reference frames : 4 frames
Codec ID : V_MPEG4/ISO/AVC
Duration : 2 h 51 min
Bit rate : 2 870 kb/s
Width : 3 840 pixels
Height : 2 160 pixels
Display aspect ratio : 16:9
Frame rate mode : Variable
Frame rate : 24.000 FPS
Color space : YUV
Chroma subsampling : 4:2:0
Bit depth : 10 bits
Scan type : Progressive
Bits/(Pixel*Frame) : 0.014
Stream size : 3.43 GiB (89%)
Default : Yes
Forced : No
Color range : Limited
Color primaries : BT.709
Matrix coefficients : BT.709

Audio #1
ID : 2
Format : AAC LC
Format/Info : Advanced Audio Codec Low Complexity
Codec ID : A_AAC-2
Duration : 2 h 51 min
Bit rate : 161 kb/s
Channel(s) : 6 channels
Channel layout : C L R Ls Rs LFE
Sampling rate : 48.0 kHz
Frame rate : 46.875 FPS (1024 SPF)
Compression mode : Lossy
Stream size : 197 MiB (5%)
Language : Tamil
Default : No
Forced : No

Audio #2
ID : 3
Format : E-AC-3
Format/Info : Enhanced AC-3
Commercial name : Dolby Digital Plus
Codec ID : A_EAC3
Duration : 2 h 51 min
Bit rate mode : Constant
Bit rate : 192 kb/s
Channel(s) : 6 channels
Channel layout : L R C LFE Ls Rs
Sampling rate : 48.0 kHz
Frame rate : 31.250 FPS (1536 SPF)
Compression mode : Lossy
Stream size : 235 MiB (6%)
Title : Track Hindi(Encoded By SamDUploader)
Language : Hindi
Service kind : Complete Main
Default : No
Forced : No

vlcsnap-2022-07-13-06h41m15s968vlcsnap-2022-07-13-06h41m32s562vlcsnap-2022-07-13-06h41m37s275vlcsnap-2022-07-13-06h42m07s009vlcsnap-2022-07-13-06h42m18s829
Direct Download Link Button Software Cracking, PNG, 3043x875px, Button, Android, Area, Banner, Blue Download Free

https://tusfiles.com/xf3vqc79vhq6

Article By :
I am uploader thats it
5 1 vote
Article Rating
Subscribe
Notify of
guest
0 Comments
Inline Feedbacks
View all comments